Регистрация ·
Имя: Пароль:  
· Забыли пароль?


Ну, погоди [1-20 серии] (Вячеслав Котёночкин, Юрий Бутырин, Владимир Тарасов) (мультфильм, комедия, семейный, приключения 1969 – 2006 DVDRip)

Ответить на тему
 
Автор Сообщение

$-Шаман-$ ®

Пол: Мужской

Стаж: 1 месяц 29 дней

Сообщений: 412

Репутация: 748

[+] [-]

Откуда: Ташкент Сергели р-он

Наличие запрета:



Награды: 6 (Подробнее)

250 активных раздач (Количество: 1) Активный модератор (Количество: 1) Киноман (Количество: 1) Раздал 1 TB (Количество: 1) Раздал 200 GB (Количество: 1)
Форумчанин 2 (Количество: 1)

Создавать темы 23-Янв-2017 14:46

Цитировать

Ну, погоди
-Год выпуска: 1969 – 2006
Страна: СССР
Жанр: мультфильм, комедия, семейный, приключения
Продолжительность: 00:10:25-Режиссёр: Вячеслав Котёночкин, Юрий Бутырин, Владимир Тарасов-Актёры: Клара Румянова, Анатолий Папанов, Геннадий Хазанов, Владимир Сошальский, Игорь Христенко-О фильме: Веселые приключения неразлучной парочки — хулигана Волка и смышленого Зайца. Любимые с детства сцены погонь, ссор и примирений, шутки и мелодии.-Слоган: «Ну, заяц! Ну, погоди!»-Сценарий: Феликс Камов, Аркадий Хайт, Александр Курляндский
Оператор: Светлана Кащеева, Н. Климова, Елена Петрова
Композитор: Виктор Бабушкин, Александр Зацепин, Андрей Державин-Формат: avi
Качество: DVDRip
Видео: Xvid 640x480 25fps 2170kbps
Аудио: MP3 48000Hz stereo 128kbps--

Информация по видеофайлу

Complete name : E:\загрузки\nu.pogodi.01.avi
Format : AVI
Format/Info : Audio Video Interleave
File size : 157 MiB
Duration : 9 min 31 s
Overall bit rate : 2 308 kb/s
Movie name : Ну, Погоди! (1-я серия)
Director : agor
Genre : Child's
Writing application : VirtualDubMod 1.5.10.1 (build 2366/release)
Writing library : VirtualDubMod build 2366/release
Original source form/Name : Cartoon
Video
ID : 0
Format : MPEG-4 Visual
Format profile : Advanced Simple@L5
Format settings, BVOP : 1
Format settings, QPel : No
Format settings, GMC : No warppoints
Format settings, Matrix : Default (MPEG)
Codec ID : XVID
Codec ID/Hint : XviD
Duration : 9 min 31 s
Bit rate : 2 170 kb/s
Width : 640 pixels
Height : 480 pixels
Display aspect ratio : 4:3
Frame rate : 25.000 FPS
Color space : YUV
Chroma subsampling : 4:2:0
Bit depth : 8 bits
Scan type : Progressive
Compression mode : Lossy
Bits/(Pixel*Frame) : 0.283
Stream size : 148 MiB (94%)
Writing library : XviD 1.0.3 (UTC 2004-12-20)
Audio
ID : 1
Format : MPEG Audio
Format version : Version 1
Format profile : Layer 3
Codec ID : 55
Codec ID/Hint : MP3
Duration : 9 min 31 s
Bit rate mode : Constant
Bit rate : 128 kb/s
Channel(s) : 2 channels
Sampling rate : 48.0 kHz
Compression mode : Lossy
Stream size : 8.73 MiB (6%)
Alignment : Aligned on interleaves
Interleave, duration : 40 ms (1.00 video frame)
Interleave, preload duration : 504 ms

[Профиль] ЛС

ElementX

Пол: Мужской

Стаж: 5 месяцев 1 день

Сообщений: 127

Репутация: 530

[+] [-]

Откуда: гр.УРГЕНЧ

Наличие запрета:



Награды: 2 (Подробнее)

Мобильный (Количество: 1) Раздал 800 GB (Количество: 1)

Создавать темы 23-Янв-2017 18:22 (спустя 3 часа)

Цитировать

Мульт детства ))))))))))
Респект
[Профиль] ЛС
Показать сообщения:    
Ответить на тему

Текущее время: 20-Фев 08:56

Часовой пояс: UTC + 5



Вы не можете начинать темы
Вы не можете отвечать на сообщения
Вы не можете редактировать свои сообщения
Вы не можете удалять свои сообщения
Вы не можете голосовать в опросах
Вы не можете прикреплять файлы к сообщениям
Вы не можете скачивать файлы