Регистрация ·
Имя: Пароль:  
· Забыли пароль?


loading...

Операция «Хромит» | Operation.Chromite (Джон Х. Ли) [2016 г., боевик, драма, военный, история, WEB-DLRip]

Ответить на тему
 
Автор Сообщение

$-Шаман-$ ®

Пол: Мужской

Стаж: 2 месяца

Сообщений: 428

Репутация: 749

[+] [-]

Откуда: Ташкент Сергели р-он

Наличие запрета:



Награды: 6 (Подробнее)

250 активных раздач (Количество: 1) Активный модератор (Количество: 1) Киноман (Количество: 1) Раздал 1 TB (Количество: 1) Раздал 200 GB (Количество: 1)
Форумчанин 2 (Количество: 1)

Создавать темы 17-Янв-2017 12:55

Цитировать

Операция «Хромит» / Operation.Chromite
Год выпуска: 2016 г.
Страна: Корея Южная
Жанр: боевик, драма, военный, история
Продолжительность: 01:50:22
Перевод: Любительский (многоголосый закадровый) | Колобок
Режиссер: Джон Х. Ли
В ролях:
Ли Джон-джэ, Ли Бом-су, Лиам Нисон, Чин Сэ-ён, Sean Dulake, Дин Доусон, Justin Rupple, Ким Джин-у, Ким Бён-ок, Фань Ян
Описание:
Лето 1950 года. Самый разгар Корейской войны. Армия северян вторглась через границу, захватила Сеул и оттеснила остатки южнокорейских войск и сил ООН за Пусанский периметр. 95% полуострова уже принадлежит солдатам Ким Ир Сена, но в Пусан прибывает 70-летний генерал США Дуглас Макартур, получивший от ООН все полномочия на ведение наземных операций.
Макартур разрабатывает отчаянный план Инчхонской десантной операции (или операции «Хромит»), согласно которому южнокорейские и американские морпехи должны высадиться в самом тылу врага и переломить ход войны. В центре сюжета этой картины — история предшествующей десанту разведоперации «X-Ray», о цели которой знали только генерал Макартур и восемь южнокорейских офицеров. «Я отдаю себе отчёт в том, что шансы на удачу в Инчхоне составляют один к пяти тысячам, — сказал Макартур, — но мне не привыкать. Мы высадимся в Инчхоне, и я их разобью.»
Качество видео: WEB-DLRip
Формат видео: AVI
Видео: Xvid 720x304 24fps 1668kbps
Аудио: Dolby AC3 48000Hz stereo 192kbps

Тех. инфо

Format : AVI

Format/Info : Audio Video Interleave
File size : 1.46 GiB
Duration : 1 h 51 min
Overall bit rate : 1 870 kb/s
Writing application : VirtualDubMod 1.5.10.2 (build 2540/release)
Writing library : VirtualDubMod build 2540/release
Video
ID : 0
Format : MPEG-4 Visual
Format profile : Advanced Simple@L5
Format settings, BVOP : 2
Format settings, QPel : No
Format settings, GMC : No warppoints
Format settings, Matrix : Default (MPEG)
Codec ID : XVID
Codec ID/Hint : XviD
Duration : 1 h 51 min
Bit rate : 1 669 kb/s
Width : 720 pixels
Height : 304 pixels
Display aspect ratio : 2.35:1
Frame rate : 24.000 FPS
Color space : YUV
Chroma subsampling : 4:2:0
Bit depth : 8 bits
Scan type : Progressive
Compression mode : Lossy
Bits/(Pixel*Frame) : 0.318
Stream size : 1.30 GiB (89%)
Writing library : XviD 1.2.1 (UTC 2008-12-04)
Audio
ID : 1
Format : AC-3
Format/Info : Audio Coding 3
Mode extension : CM (complete main)
Format settings, Endianness : Big
Codec ID : 2000
Duration : 1 h 51 min
Bit rate mode : Constant
Bit rate : 192 kb/s
Channel(s) : 2 channels
Channel positions : Front: L R
Sampling rate : 48.0 kHz
Frame rate : 31.250 FPS (1536 spf)
Bit depth : 16 bits
Compression mode : Lossy
Stream size : 153 MiB (10%)
Alignment : Split accross interleaves
Interleave, duration : 42 ms (1.00 video frame)
Interleave, preload duration : 500 ms

[Профиль] ЛС
Показать сообщения:    
Ответить на тему

Текущее время: 22-Фев 18:02

Часовой пояс: UTC + 5



Вы не можете начинать темы
Вы не можете отвечать на сообщения
Вы не можете редактировать свои сообщения
Вы не можете удалять свои сообщения
Вы не можете голосовать в опросах
Вы не можете прикреплять файлы к сообщениям
Вы не можете скачивать файлы