Регистрация ·
Имя: Пароль:  
· Забыли пароль?


Бродяга Кэнсин | Rurouni Kenshin (Кейси Отомо / Keishi Ohtomo) [2013 г., Экшн, драма, история, самурайский боевик, HD]

Ответить на тему
 
Автор Сообщение

Clan Alexa ®

Пол: Мужской

Стаж: 9 месяцев 11 дней

Сообщений: 32

Репутация: 27

[+] [-]

Наличие запрета:



Награды: Нет

Создавать темы 13-Янв-2017 01:38

Цитировать

Бродяга Кэнсин / Rurouni Kenshin
Год выпуска: 2013 г.
Страна: Япония
Жанр: Экшн, драма, история, самурайский боевик
Продолжительность: 02:18:41
Перевод: Одноголосый закадровый
Режиссер: Кейси Отомо / Keishi Ohtomo
В ролях: Такеру Сато, Эми Такеи, Тацуя Фудзивара, Ёсукэ Эгути, Юсукэ Исейа, Мунэтака Аоки, Аои Ю, Рюноскэ Камики, Тао Цучия, Мин Танака
Описание: Но теперь все это в прошлом. Теперь Кэнсин Химура обычный человек, скитающийся и одинокий. Не так давно он решил стать Робин Гудом, теперь он предлагает свою помощь бесплатно и старается забыть о том, кем был в прошлой жизни. Своими хорошими поступками он надеется искупить грехи, которые совершал в таком большом количестве когда-то. В это же время в Японии проживает девушка, по имени Каору Камия. Она работает инструктором в школе, которую открыл ее отец. Школа посвящена изучению кэндо. Жизнь девушки не отличается непредсказуемостью, но она является примером благородства и спокойствия. Так случается, что судьба сталкивается Кэндо Химуру и Каору Камию.
Качество видео: HD
Формат видео: MKV
Видео кодек: H.264
Аудио кодек: AAC
Видео: MPEG4 Video (H264) 720x304 23.976fps
Аудио: Dolby AC3 48000Hz 6ch 448kbps

M.I

Общее
Уникальный идентификатор : 188068279790292701808551593606518325843 (0x8D7CA217050883218BCAE904B4A6C253)
Полное имя : D:\Кино\Бродяга кэнсин ^^^^Keiji Ohtomo^^^^\япония 2 серия Rurouni.Kenshin.Kyoto.Inferno.HD .mkv
Формат : Matroska
Версия формата : Version 4 / Version 2
Размер файла : 2,18 Гбайт
Продолжительность : 2 ч. 18 м.
Общий поток : 2247 Кбит/сек
Дата кодирования : UTC 2015-01-07 22:57:30
Программа кодирования : mkvmerge v7.4.0 ('Circles') 32bit built on Dec 12 2014 12:10:09
Библиотека кодирования : libebml v1.3.0 + libmatroska v1.4.1
Видео
Идентификатор : 1
Формат : AVC
Формат/Информация : Advanced Video Codec
Профиль формата : High@L4.1
Параметр CABAC формата : Да
Параметр ReFrames формата : 10 кадров
Идентификатор кодека : V_MPEG4/ISO/AVC
Продолжительность : 2 ч. 18 м.
Битрейт : 1349 Кбит/сек
Ширина : 720 пикселей
Высота : 304 пикселя
Соотношение сторон : 2,35:1
Режим частоты кадров : Постоянный
Частота кадров : 23,976 (24000/1001) кадра/сек
Цветовое пространство : YUV
Субдискретизация насыщенности : 4:2:0
Битовая глубина : 8 бит
Тип развёртки : Прогрессивная
Бит/(Пиксели*Кадры) : 0.257
Размер потока : 1,31 Гбайт (60%)
Библиотека кодирования : x264 core 140 r2377 1ca7bb9
Настройки программы : cabac=1 / ref=10 / deblock=1:-2:-1 / analyse=0x3:0x133 / me=umh / subme=10 / psy=1 / psy_rd=1.00:0.00 / mixed_ref=1 / me_range=24 / chroma_me=1 / trellis=2 / 8x8dct=1 / cqm=0 / deadzone=21,11 / fast_pskip=1 / chroma_qp_offset=-2 / threads=6 / lookahead_threads=1 / sliced_threads=0 / nr=0 / decimate=0 / interlaced=0 / bluray_compat=0 / constrained_intra=0 / bframes=10 / b_pyramid=2 / b_adapt=2 / b_bias=0 / direct=3 / weightb=1 / open_gop=0 / weightp=2 / keyint=240 / keyint_min=23 / scenecut=40 / intra_refresh=0 / rc_lookahead=60 / rc=2pass / mbtree=0 / bitrate=1349 / ratetol=1.0 / qcomp=0.65 / qpmin=10 / qpmax=51 / qpstep=4 / cplxblur=20.0 / qblur=0.5 / vbv_maxrate=62500 / vbv_bufsize=78125 / nal_hrd=none / filler=0 / ip_ratio=1.40 / pb_ratio=1.30 / aq=1:1.00
Язык : English
Default : Да
Forced : Нет
Цветовой диапазон : Limited
Коэффициенты матрицы : BT.709
Аудио #1
Идентификатор : 2
Формат : AC-3
Формат/Информация : Audio Coding 3
Расширение режима : CM (complete main)
Параметр Endianness формата : Big
Идентификатор кодека : A_AC3
Продолжительность : 2 ч. 18 м.
Вид битрейта : Постоянный
Битрейт : 448 Кбит/сек
Каналы : 6 каналов
Расположение каналов : Front: L C R, Side: L R, LFE
Частота : 48,0 КГц
Частота кадров : 31,250 кадров/сек (1536 spf)
Метод сжатия : С потерями
Размер потока : 444 Мбайт (20%)
Заголовок : Ворон и Трина Дубовицкая
Язык : Russian
Default : Да
Forced : Нет
Аудио #2
Идентификатор : 3
Формат : AC-3
Формат/Информация : Audio Coding 3
Расширение режима : CM (complete main)
Параметр Endianness формата : Big
Идентификатор кодека : A_AC3
Продолжительность : 2 ч. 18 м.
Вид битрейта : Постоянный
Битрейт : 448 Кбит/сек
Каналы : 6 каналов
Расположение каналов : Front: L C R, Side: L R, LFE
Частота : 48,0 КГц
Частота кадров : 31,250 кадров/сек (1536 spf)
Метод сжатия : С потерями
Размер потока : 444 Мбайт (20%)
Заголовок : Original
Язык : Japanese
Default : Нет
Forced : Нет
Текст #1
Идентификатор : 4
Формат : UTF-8
Идентификатор кодека : S_TEXT/UTF8
Идентификатор кодека/Информация : UTF-8 Plain Text
Продолжительность : 46 м.
Битрейт : 0 бит/сек
Count of elements : 4
Размер потока : 286 байт (0%)
Заголовок : форсированный(надписи)
Язык : Russian
Default : Да
Forced : Да
Текст #2
Идентификатор : 5
Формат : UTF-8
Идентификатор кодека : S_TEXT/UTF8
Идентификатор кодека/Информация : UTF-8 Plain Text
Продолжительность : 2 ч. 14 м.
Битрейт : 46 бит/сек
Count of elements : 1031
Размер потока : 45,5 Кбайт (0%)
Заголовок : Перевод - фансаб-группы "Альянс"
Язык : Russian
Default : Нет
Forced : Нет

Скриншоты

[Профиль] ЛС
Показать сообщения:    
Ответить на тему

Текущее время: 20-Фев 08:57

Часовой пояс: UTC + 5



Вы не можете начинать темы
Вы не можете отвечать на сообщения
Вы не можете редактировать свои сообщения
Вы не можете удалять свои сообщения
Вы не можете голосовать в опросах
Вы не можете прикреплять файлы к сообщениям
Вы не можете скачивать файлы