Регистрация ·
Имя: Пароль:  
· Забыли пароль?


Выстрел / Dishoom (Рохит Дхаван / Rohit Dhawan) [2016 г., боевик, комедия, криминал, WEB-DL 720p]

Ответить на тему
 
Автор Сообщение

$-Шаман-$ ®

Пол: Мужской

Стаж: 2 месяца 3 дня

Сообщений: 427

Репутация: 749

[+] [-]

Откуда: Ташкент Сергели р-он

Наличие запрета:



Награды: 6 (Подробнее)

250 активных раздач (Количество: 1) Активный модератор (Количество: 1) Киноман (Количество: 1) Раздал 1 TB (Количество: 1) Раздал 200 GB (Количество: 1)
Форумчанин 2 (Количество: 1)

Создавать темы 12-Янв-2017 13:55

Цитировать

Выстрел / Dishoom-
Год выпуска: 2016
Страна: Индия
Жанр: боевик, комедия, криминал, приключения
Продолжительность: 02:01:02
Перевод: Профессиональный (многоголосый Honey&Haseena) + Rus Sub [Денис Строев, Михаил Цареградский, Давид Петросян и Маргарита Сахно]
-Режиссер: Рохит Дхаван / Rohit Dhawan
В ролях: Наргис Факхри, Акшай Кумар, Джон Абрахам, Жаклин Фернандес, Варун Дхаван, Паринити Чопра, Акшай Кханна, Виджай Рааз, Сатиш Каушик, Рахул Дев, Сакиб Салим, Erand Hoxha-Описание: Во время турнира по крикету на Ближнем Востоке при странных обстоятельствах пропадает известный спортсмен команды Индии Вирадж Шарма. Индийские власти получают запись с видео, сделанную неизвестным пакистанским фанатом, который заявляет о похищении спортсмена перед решающим матчем между Индией и Пакистаном. Безумный фанат предупреждает власти о том, что матч не должен быть отменен.. Для того, чтобы избежать массовой паники индийские власти держат шокирующую новость в секрете от СМИ и отправляют индийского полицейского Кабира Шергил в ОАЭ на поиски спортсмена.-КиноПоиск: 6.278 (113)-Качество: WEB-DL 720
Формат: MPEG-4
Видео: AVC, 1280x528, ~1452 kbps, 24 fps
Аудио: AAC LC, 44 kHz, 151 kbps, 2 ch-

MediaInfo

General
Complete name : E:\загрузки\Выстрел _ Dishoom _ 2016 _ HoneyHaseena _ [Михаил Цареградский, Давид Петросян и.mp4
Format : MPEG-4
Format profile : Base Media
Codec ID : isom (isom/iso2/avc1/mp41)
File size : 1.36 GiB
Duration : 2 h 1 min
Overall bit rate mode : Variable
Overall bit rate : 1 610 kb/s
Writing application : Lavf55.48.100
Video
ID : 1
Format : AVC
Format/Info : Advanced Video Codec
Format profile : High@L3.1
Format settings, CABAC : Yes
Format settings, ReFrames : 4 frames
Codec ID : avc1
Codec ID/Info : Advanced Video Coding
Duration : 2 h 1 min
Bit rate : 1 452 kb/s
Width : 1 280 pixels
Height : 528 pixels
Display aspect ratio : 2.40:1
Original display aspect ratio : 2.40:1
Frame rate mode : Constant
Frame rate : 24.000 FPS
Color space : YUV
Chroma subsampling : 4:2:0
Bit depth : 8 bits
Scan type : Progressive
Bits/(Pixel*Frame) : 0.090
Stream size : 1.23 GiB (90%)
Writing library : x264 core 142
Encoding settings : cabac=1 / ref=3 / deblock=1:0:0 / analyse=0x3:0x113 / me=hex / subme=7 / psy=1 / psy_rd=1.00:0.00 / mixed_ref=1 / me_range=16 / chroma_me=1 / trellis=1 / 8x8dct=1 / cqm=0 / deadzone=21,11 / fast_pskip=1 / chroma_qp_offset=-2 / threads=6 / lookahead_threads=1 / sliced_threads=0 / nr=0 / decimate=1 / interlaced=0 / bluray_compat=0 / constrained_intra=0 / bframes=3 / b_pyramid=2 / b_adapt=1 / b_bias=0 / direct=1 / weightb=1 / open_gop=0 / weightp=2 / keyint=24 / keyint_min=2 / scenecut=40 / intra_refresh=0 / rc_lookahead=24 / rc=2pass / mbtree=1 / bitrate=1452 / ratetol=1.0 / qcomp=0.60 / qpmin=0 / qpmax=69 / qpstep=4 / cplxblur=20.0 / qblur=0.5 / ip_ratio=1.40 / aq=1:1.00
Audio
ID : 2
Format : AAC
Format/Info : Advanced Audio Codec
Format profile : LC
Codec ID : 40
Duration : 2 h 1 min
Bit rate mode : Variable
Bit rate : 152 kb/s
Maximum bit rate : 192 kb/s
Channel(s) : 2 channels
Channel positions : Front: L R
Sampling rate : 44.1 kHz
Frame rate : 43.066 FPS (1024 spf)
Compression mode : Lossy
Stream size : 132 MiB (9%)
Default : Yes
Alternate group : 1

Релиз подготовлен R.G. Films

[Профиль] ЛС
Показать сообщения:    
Ответить на тему

Текущее время: 25-Фев 20:50

Часовой пояс: UTC + 5



Вы не можете начинать темы
Вы не можете отвечать на сообщения
Вы не можете редактировать свои сообщения
Вы не можете удалять свои сообщения
Вы не можете голосовать в опросах
Вы не можете прикреплять файлы к сообщениям
Вы не можете скачивать файлы