Регистрация ·
Имя: Пароль:  
· Забыли пароль?


128 ударов сердца в минуту | We Are Your Friends (Макс Джозеф | Max Joseph) [2015., драма, мелодрама, музыка, WEB-DLRip][Чистый звук]

Ответить на тему
 
Автор Сообщение

NeverOne ®

Пол: Мужской

Стаж: 1 месяц 21 день

Сообщений: 15

Репутация: 20

[+] [-]

Откуда: Ташкент

Наличие запрета:



Награды: Нет

Создавать темы 12-Янв-2017 03:25

Цитировать

128 ударов сердца в минуту / We Are Your Friends

Год выпуска: 2015
Страна: Великобритания, Франция, США
Жанр: драма, мелодрама, музыка
Продолжительность: 01:31:59
Перевод: Дублированный[Чистый звук] официальный


Режиссер: Макс Джозеф / Max Joseph
В ролях: Зак Эфрон, Уэс Бентли, Эмили Ратаковски, Джонни Уэстон, Шайло Фернандес, Алекс Шеффер, Джон Бернтал, Алисия Коппола, Уайли М. Пикетт, Джон Абрахамс, Молли Хэйгэн, Бриттани Фурлан

Описание: Лос-Анджелес, Калифорния - это мир бесконечных возможностей днем и нереальных голливудских вечеринок ночью. Оба этих мира стремится покорить молодой DJ по имени Коул, неустанно работающий над своим пробивным треком, который должен взорвать весь мир. Его замечает и берет под крыло опытный продюсер Джеймс, но все становится крайне запутанным, когда Коул влюбляется в молодую подружку Джеймса. Вскоре перед Коулом встает непростой выбор между любовью, верностью, старыми друзьями и будущим, о котором он так мечтает.

КиноПоиск: 6.731 (16 030)
IMDb: 6.10 (22 746)

Качество: WEB-DLRip
Формат: AVI
Видео кодек: XviD
Аудио кодек: AC3
Видео: XviD, 1983 kb/s, 720x304
Аудио: AC3, 192 kb/s (2 ch)

MediaInfo

General
Complete name : 128 ударов сердца в минуту / We Are Your Friends
Format : AVI
Format/Info : Audio Video Interleave
File size : 1.37 GiB
Duration : 1 h 31 min
Overall bit rate : 2 127 kb/s
Writing application : VirtualDubMod 1.5.10.3 | www.virtualdub-fr.org || (build 2550/release)
Writing library : VirtualDubMod build 2550/release
Video
ID : 0
Format : MPEG-4 Visual
Format profile : Advanced Simple@L5
Format settings, BVOP : 2
Format settings, QPel : No
Format settings, GMC : No warppoints
Format settings, Matrix : Default (MPEG)
Codec ID : XVID
Codec ID/Hint : XviD
Duration : 1 h 31 min
Bit rate : 1 925 kb/s
Width : 720 pixels
Height : 400 pixels
Display aspect ratio : 16:9
Frame rate : 25.000 FPS
Color space : YUV
Chroma subsampling : 4:2:0
Bit depth : 8 bits
Scan type : Progressive
Compression mode : Lossy
Bits/(Pixel*Frame) : 0.267
Stream size : 1.24 GiB (91%)
Writing library : XviD 1.2.1 (UTC 2008-12-04)
Audio
ID : 1
Format : AC-3
Format/Info : Audio Coding 3
Mode extension : CM (complete main)
Format settings, Endianness : Big
Codec ID : 2000
Duration : 1 h 31 min
Bit rate mode : Constant
Bit rate : 192 kb/s
Channel(s) : 2 channels
Channel positions : Front: L R
Sampling rate : 48.0 kHz
Frame rate : 31.250 FPS (1536 spf)
Bit depth : 16 bits
Compression mode : Lossy
Stream size : 126 MiB (9%)
Alignment : Split accross interleaves
Interleave, duration : 40 ms (1.00 video frame)
Interleave, preload duration : 500 ms

[Профиль] ЛС
Показать сообщения:    
Ответить на тему

Текущее время: 23-Фев 14:20

Часовой пояс: UTC + 5



Вы не можете начинать темы
Вы не можете отвечать на сообщения
Вы не можете редактировать свои сообщения
Вы не можете удалять свои сообщения
Вы не можете голосовать в опросах
Вы не можете прикреплять файлы к сообщениям
Вы не можете скачивать файлы