Регистрация ·
Имя: Пароль:  
· Забыли пароль?


loading...

Без тормозов / À fond (Николас Бенаму / Nicolas Benamou) [2016 г., комедия, TS]

Ответить на тему
 
Автор Сообщение

$-Шаман-$ ®

Пол: Мужской

Стаж: 2 месяца

Сообщений: 428

Репутация: 749

[+] [-]

Откуда: Ташкент Сергели р-он

Наличие запрета:



Награды: 6 (Подробнее)

250 активных раздач (Количество: 1) Активный модератор (Количество: 1) Киноман (Количество: 1) Раздал 1 TB (Количество: 1) Раздал 200 GB (Количество: 1)
Форумчанин 2 (Количество: 1)

Создавать темы 10-Янв-2017 12:40

Цитировать

Без тормозов / À fond-
Год выпуска: 2016
Страна: Франция, Македония
Жанр: комедия
Продолжительность: 01:24:17
Перевод: Дублированный-Режиссер: Николас Бенаму / Nicolas Benamou
В ролях: Хосе Гарсия, Андре Дюссолье, Каролин Виньо, Жозефин Каллиз, Стилан Лекай, Шарлотта Габрис, Венсан Дезанья, Флоренс Форести, Жером Коммандёр, Владимир Хубар, Харрисон Аревало, Мэтью Барбет-Описание: Взяв напрокат самый навороченный семейный автомобиль, глава семейства отправляется в долгожданный отпуск со своей женой, детьми и отцом. Но когда новомодный круиз-контроль вдруг полностью отключает тормоза, каникулы перестают быть томными. Пристегните ремни. Вас ждет очень веселая поездочка!-КиноПоиск: 6.356 (204)
IMDb: 5.70 (73)-Качество: TS
Формат: AVI
Видео: MPEG-4 Visual, 720x352, ~1927 kbps, 25 fps
Аудио: AC3, 48 kHz, 384 kbps, 2 ch-

MediaInfo

General
Complete name : E:\загрузки\Bez.TorMozoFF.2O16.D.TS.14OOMB.avi
Format : AVI
Format/Info : Audio Video Interleave
File size : 1.37 GiB
Duration : 1 h 24 min
Overall bit rate : 2 322 kb/s
Writing application : VirtualDubMod 1.5.10.2 (build 2540/release)
Writing library : VirtualDubMod build 2540/release
Video
ID : 0
Format : MPEG-4 Visual
Format profile : Advanced Simple@L5
Format settings, BVOP : 2
Format settings, QPel : No
Format settings, GMC : No warppoints
Format settings, Matrix : Default (MPEG)
Codec ID : XVID
Codec ID/Hint : XviD
Duration : 1 h 24 min
Bit rate : 1 928 kb/s
Width : 720 pixels
Height : 352 pixels
Display aspect ratio : 2.045
Frame rate : 25.000 FPS
Color space : YUV
Chroma subsampling : 4:2:0
Bit depth : 8 bits
Scan type : Progressive
Compression mode : Lossy
Bits/(Pixel*Frame) : 0.304
Stream size : 1.13 GiB (83%)
Writing library : XviD 1.2.1 (UTC 2008-12-04)
Audio
ID : 1
Format : AC-3
Format/Info : Audio Coding 3
Mode extension : CM (complete main)
Format settings, Endianness : Big
Codec ID : 2000
Duration : 1 h 24 min
Bit rate mode : Constant
Bit rate : 384 kb/s
Channel(s) : 2 channels
Channel positions : Front: L R
Sampling rate : 48.0 kHz
Frame rate : 31.250 FPS (1536 spf)
Bit depth : 16 bits
Compression mode : Lossy
Stream size : 232 MiB (17%)
Alignment : Split accross interleaves
Interleave, duration : 40 ms (1.00 video frame)
Interleave, preload duration : 500 ms

[Профиль] ЛС
Показать сообщения:    
Ответить на тему

Текущее время: 22-Фев 17:55

Часовой пояс: UTC + 5



Вы не можете начинать темы
Вы не можете отвечать на сообщения
Вы не можете редактировать свои сообщения
Вы не можете удалять свои сообщения
Вы не можете голосовать в опросах
Вы не можете прикреплять файлы к сообщениям
Вы не можете скачивать файлы