Регистрация ·
Имя: Пароль:  
· Забыли пароль?


Арсенал / Arsenal (Стивен С. Миллер / Steven C. Miller) [2017 г., триллер, WEB-DLRip]

Ответить на тему
 
Автор Сообщение

$-Шаман-$ ®

Пол: Мужской

Стаж: 1 месяц 29 дней

Сообщений: 412

Репутация: 748

[+] [-]

Откуда: Ташкент Сергели р-он

Наличие запрета:



Награды: 6 (Подробнее)

250 активных раздач (Количество: 1) Активный модератор (Количество: 1) Киноман (Количество: 1) Раздал 1 TB (Количество: 1) Раздал 200 GB (Количество: 1)
Форумчанин 2 (Количество: 1)

Создавать темы 09-Янв-2017 21:34

Цитировать

Арсенал / Arsenal-
Год выпуска: 2017
Страна: США
Жанр: триллер
Продолжительность: 01:32:35
Перевод: Любительский многоголосый [@MUZOBOZ@]-Режиссер: Стивен С. Миллер / Steven C. Miller
В ролях: Николас Кейдж, Джон Кьюсак, Эдриан Гренье, Джонатон Шек, Лидия Халл, Хезер Йохансен, Марк МакКалло, Эбби Гэйл, Кристофер Коппола, Carrie Jo Hubrich, Кристофер Роб Бауэн, Тайлер Джон Олсон-Описание: У каждого свой жизненный путь. Идти по нему или нет - каждый выбирает сам. Если вмешается злодейка-судьба, то предначертанное должно свершиться. Два брата - дети одной матери - одинаковые по крови и такие разные по жизни. Как многие подростки, они выросли на улице, впитывая в себя плохое и хорошее уличного бытия. Время скоротечно и дороги братьев расходятся на многие годы. Один из них вырывается из бедности и занимается строительным бизнесом. Он богатый, уважаемый деловой человек. Судьба второго брата совсем иная. Занимая не высокое положение в криминальном мире, он и его дочь становятся заложниками влиятельного авторитета. Только выкуп может вернуть свободу. Теперь их жизнь из зависит от брата. Но между ними долгие годы разлуки. Оба изменились и находились по разные стороны закона. Как поступит богатый брат?--Качество: WEB-DLRip
Формат: AVI
Видео: MPEG-4 Visual, 720x304, ~1719 kbps, 23,976 fps
Аудио: AC3, 48 kHz, 384 kbps, 2 ch-

MediaInfo

General
Complete name : E:\загрузки\Arsenal.2017.P.WEB-DLRip.14OOMB.avi
Format : AVI
Format/Info : Audio Video Interleave
File size : 1.37 GiB
Duration : 1 h 32 min
Overall bit rate : 2 113 kb/s
Writing application : VirtualDubMod 1.5.10.2 (build 2540/release)
Writing library : VirtualDubMod build 2540/release
Video
ID : 0
Format : MPEG-4 Visual
Format profile : Advanced Simple@L5
Format settings, BVOP : 2
Format settings, QPel : No
Format settings, GMC : No warppoints
Format settings, Matrix : Default (MPEG)
Codec ID : XVID
Codec ID/Hint : XviD
Duration : 1 h 32 min
Bit rate : 1 720 kb/s
Width : 720 pixels
Height : 304 pixels
Display aspect ratio : 2.35:1
Frame rate : 23.976 (24000/1001) FPS
Color space : YUV
Chroma subsampling : 4:2:0
Bit depth : 8 bits
Scan type : Progressive
Compression mode : Lossy
Bits/(Pixel*Frame) : 0.328
Stream size : 1.11 GiB (81%)
Writing library : XviD 1.2.1 (UTC 2008-12-04)
Audio
ID : 1
Format : AC-3
Format/Info : Audio Coding 3
Mode extension : CM (complete main)
Format settings, Endianness : Big
Codec ID : 2000
Duration : 1 h 32 min
Bit rate mode : Constant
Bit rate : 384 kb/s
Channel(s) : 2 channels
Channel positions : Front: L R
Sampling rate : 48.0 kHz
Frame rate : 31.250 FPS (1536 spf)
Bit depth : 16 bits
Compression mode : Lossy
Stream size : 254 MiB (18%)
Alignment : Split accross interleaves
Interleave, duration : 42 ms (1.00 video frame)
Interleave, preload duration : 500 ms

Релиз подготовлен R.G. Films

[Профиль] ЛС
Показать сообщения:    
Ответить на тему

Текущее время: 20-Фев 04:36

Часовой пояс: UTC + 5



Вы не можете начинать темы
Вы не можете отвечать на сообщения
Вы не можете редактировать свои сообщения
Вы не можете удалять свои сообщения
Вы не можете голосовать в опросах
Вы не можете прикреплять файлы к сообщениям
Вы не можете скачивать файлы