Регистрация ·
Имя: Пароль:  
· Забыли пароль?


Зимняя сказка, или Королева, потерявшая имя / Fräulein: una fiaba d'inverno (Катерина Кароне / Caterina Carone) [2016 г., фантастика, фэнтези, комедия, DVDRip]

Ответить на тему
 
Автор Сообщение

$-Шаман-$ ®

Пол: Мужской

Стаж: 2 месяца 2 дня

Сообщений: 428

Репутация: 749

[+] [-]

Откуда: Ташкент Сергели р-он

Наличие запрета:



Награды: 6 (Подробнее)

250 активных раздач (Количество: 1) Активный модератор (Количество: 1) Киноман (Количество: 1) Раздал 1 TB (Количество: 1) Раздал 200 GB (Количество: 1)
Форумчанин 2 (Количество: 1)

Создавать темы 08-Янв-2017 01:48

Цитировать

Зимняя сказка, или Королева, потерявшая имя
Fräulein: una fiaba d'inverno
-

Год выпуска: 2016
Страна: Италия
Жанр: фантастика, фэнтези, комедия
Продолжительность: 01:30:44
Перевод: Профессиональный многоголосый (звук с TS)
-
Катерина Кароне / Caterina Carone

Кристиан Де Сика, Лучиа Машино, Макс Маццотта, Тереза Хемер, Ирина Врона, Andrea Germani, Джасмин Барбара Мэйрхофер, Луиджи Делладио, Питер Миттерруцнер, Ingrid Bliem Esposito, Mattia Brutto-
Необычайно сильная солнечная буря обрушивается на Землю, но еще сильнее буря в душе Регины (в переводе с итальянского regina - королева), которую давно никто не называл по имени. «Дева гор» живет в компании единственного живого существа - белой курицы, - но все меняется, когда у ворот закрытого горного отеля, которым владеет героиня, появляется загадочный турист. Растерянный и инфантильный Вальтер решает спасти героиню от чар одиночества, и то, что могло стать лишь мимолетной встречей, становится для обоих началом зимней сказки.-
IMDb: 5.90 (32)-
Качество: DVDRip
Формат: AVI
Видео: MPEG-4 Visual, 720x384, ~1762 kbps, 25 fps
Аудио: AC3, 48 kHz, 384 kbps, 2 ch-

MediaInfo

General
Complete name : E:\загрузки\Fraulein.Una.Fiaba.D.Inverno.2016.Pt.DVDRip..avi
Format : AVI
Format/Info : Audio Video Interleave
File size : 1.37 GiB
Duration : 1 h 30 min
Overall bit rate : 2 157 kb/s
Writing application : VirtualDubMod 1.5.10.2 (build 2540/release)
Writing library : VirtualDubMod build 2540/release
Video
ID : 0
Format : MPEG-4 Visual
Format profile : Advanced Simple@L5
Format settings, BVOP : 2
Format settings, QPel : No
Format settings, GMC : No warppoints
Format settings, Matrix : Default (MPEG)
Codec ID : XVID
Codec ID/Hint : XviD
Duration : 1 h 30 min
Bit rate : 1 763 kb/s
Width : 720 pixels
Height : 384 pixels
Display aspect ratio : 1.85:1
Frame rate : 25.000 FPS
Color space : YUV
Chroma subsampling : 4:2:0
Bit depth : 8 bits
Scan type : Progressive
Compression mode : Lossy
Bits/(Pixel*Frame) : 0.255
Stream size : 1.12 GiB (82%)
Writing library : XviD 1.2.1 (UTC 2008-12-04)
Audio
ID : 1
Format : AC-3
Format/Info : Audio Coding 3
Mode extension : CM (complete main)
Format settings, Endianness : Big
Codec ID : 2000
Duration : 1 h 30 min
Bit rate mode : Constant
Bit rate : 384 kb/s
Channel(s) : 2 channels
Channel positions : Front: L R
Sampling rate : 48.0 kHz
Frame rate : 31.250 FPS (1536 spf)
Bit depth : 16 bits
Compression mode : Lossy
Stream size : 249 MiB (18%)
Alignment : Split accross interleaves
Interleave, duration : 40 ms (1.00 video frame)
Interleave, preload duration : 500 ms


Релиз подготовлен R.G. Films

[Профиль] ЛС

Создавать темы 08-Янв-2017 13:28 (спустя 11 часов)

Топик был перенесен из форума Фильмы 2017 года (Новинки) в форум Фильмы 2016 года
$-Шаман-$
 
Показать сообщения:    
Ответить на тему

Текущее время: 24-Фев 04:17

Часовой пояс: UTC + 5



Вы не можете начинать темы
Вы не можете отвечать на сообщения
Вы не можете редактировать свои сообщения
Вы не можете удалять свои сообщения
Вы не можете голосовать в опросах
Вы не можете прикреплять файлы к сообщениям
Вы не можете скачивать файлы