Регистрация ·
Имя: Пароль:  
· Забыли пароль?


loading...

Трансформация / Rupture (Стивен Шейнберг) [2016, США, Канада, фантастика, триллер, HDRip]

Ответить на тему
 
Автор Сообщение

cash ®

Пол: Не указан

Стаж: 1 год

Сообщений: 11

Репутация: 14

[+] [-]

Наличие запрета:



Награды: Нет

Создавать темы 07-Янв-2017 12:32

Цитировать

-Трансформация / Rupture-
Страна: США, Канада
Жанр: фантастика, триллер
Год выпуска: 2016
Продолжительность: 01:41:40-Перевод: Любительский (многоголосый) MUZOBOZ
Cубтитры: нет-Режиссер: Стивен Шейнберг-В ролях: Нуми Рапас, Петер Стормаре, Керри Бише, Майкл Чиклис, Лесли Мэнвилл,
Серджо Ди Зио, Пол Попович, Эри Миллен, Перси Хайнс Уайт, Джин Юн, Морган Келли, Джоэль Лабелль-Описание: Рене живет со своим 12-летним сыном в тихом районе на окраине города.
Она страшно боится пауков. Однажды ее похищают незнакомцы, и она приходит в себя в лаборатории,
где узнает, что она - уникальный обладатель генетической аномалии, которая может
помочь ей трансформироваться в иную сущность, в монстра...-Качество видео: HDRip
Формат видео: AVI
Видео: Xvid 720x304 23.976fps 1466kbps
Аудио: Dolby AC3 48000Hz 6ch 448kbps
-

MediaInfo

General
Complete name : E:\Films\Rupture.2016.P.HDRip.14OOMB.avi
Format : AVI
Format/Info : Audio Video Interleave
File size : 1.37 GiB
Duration : 1h 41mn
Overall bit rate : 1 924 Kbps
Writing application : VirtualDubMod 1.5.10.2 (build 2540/release)
Writing library : VirtualDubMod build 2540/release
Video
ID : 0
Format : MPEG-4 Visual
Format profile : Advanced Simple@L5
Format settings, BVOP : 2
Format settings, QPel : No
Format settings, GMC : No warppoints
Format settings, Matrix : Default (MPEG)
Codec ID : XVID
Codec ID/Hint : XviD
Duration : 1h 41mn
Bit rate : 1 467 Kbps
Width : 720 pixels
Height : 304 pixels
Display aspect ratio : 2.35:1
Frame rate : 23.976 fps
Color space : YUV
Chroma subsampling : 4:2:0
Bit depth : 8 bits
Scan type : Progressive
Compression mode : Lossy
Bits/(Pixel*Frame) : 0.280
Stream size : 1.04 GiB (76%)
Writing library : XviD 1.2.1 (UTC 2008-12-04)
Audio
ID : 1
Format : AC-3
Format/Info : Audio Coding 3
Mode extension : CM (complete main)
Format settings, Endianness : Big
Codec ID : 2000
Duration : 1h 41mn
Bit rate mode : Constant
Bit rate : 448 Kbps
Channel(s) : 6 channels
Channel positions : Front: L C R, Side: L R, LFE
Sampling rate : 48.0 KHz
Bit depth : 16 bits
Compression mode : Lossy
Stream size : 326 MiB (23%)
Alignment : Split accross interleaves
Interleave, duration : 42 ms (1.00 video frame)
Interleave, preload duration : 500 ms

Скриншот c названием фильма

Скриншоты




Информация от $-Шаман-$


Картинки
с нашего хостинга
поставьте
http://img.freetor.uz/
[Профиль] ЛС

$-Шаман-$

Пол: Мужской

Стаж: 2 месяца

Сообщений: 428

Репутация: 749

[+] [-]

Откуда: Ташкент Сергели р-он

Наличие запрета:



Награды: 6 (Подробнее)

250 активных раздач (Количество: 1) Активный модератор (Количество: 1) Киноман (Количество: 1) Раздал 1 TB (Количество: 1) Раздал 200 GB (Количество: 1)
Форумчанин 2 (Количество: 1)

Создавать темы 07-Янв-2017 12:43 (спустя 10 минут)

Цитировать

http://freetor.uz/viewtopic.php?t=2695
[Профиль] ЛС

ElementX

Пол: Мужской

Стаж: 5 месяцев 3 дня

Сообщений: 128

Репутация: 531

[+] [-]

Откуда: гр.УРГЕНЧ

Наличие запрета:



Награды: 2 (Подробнее)

Мобильный (Количество: 1) Раздал 800 GB (Количество: 1)

Создавать темы 07-Янв-2017 13:13 (спустя 30 минут)

Цитировать

Ого какой постер
[Профиль] ЛС

Создавать темы 14-Янв-2017 14:57 (спустя 7 дней)

Топик был перенесен из форума Фильмы 2016 года в форум Недооформленные торренты
$-Шаман-$
 
Показать сообщения:    
Ответить на тему

Текущее время: 22-Фев 17:55

Часовой пояс: UTC + 5



Вы не можете начинать темы
Вы не можете отвечать на сообщения
Вы не можете редактировать свои сообщения
Вы не можете удалять свои сообщения
Вы не можете голосовать в опросах
Вы не можете прикреплять файлы к сообщениям
Вы не можете скачивать файлы