Регистрация ·
Имя: Пароль:  
· Забыли пароль?


#ВСЕ_ИСПРАВИТЬ!?! (Антон Калинкин) [2016 г., драма, музыка, комедия, DVDRip]

Ответить на тему
 
Автор Сообщение

$-Шаман-$ ®

Пол: Мужской

Стаж: 1 месяц 29 дней

Сообщений: 412

Репутация: 748

[+] [-]

Откуда: Ташкент Сергели р-он

Наличие запрета:



Награды: 6 (Подробнее)

250 активных раздач (Количество: 1) Активный модератор (Количество: 1) Киноман (Количество: 1) Раздал 1 TB (Количество: 1) Раздал 200 GB (Количество: 1)
Форумчанин 2 (Количество: 1)

Создавать темы 06-Янв-2017 19:55

Цитировать

#ВСЕ_ИСПРАВИТЬ!?!- Год выпуска: 2016
Страна: Россия
Жанр: драма, музыка, комедия
Продолжительность: 01:34:18
Перевод: Не требуется-Режиссер: Антон Калинкин
В ролях: Никита Киоссе, Владислав Рамм, Артём Пиндюра, Анатолий Цой, Дарья Мороз, Николай Басков, Вячеслав Гришечкин, Дарья Повереннова, Ёла Санько, Игорь Жижикин, Стася Милославская, Александр Армер-Описание: Беззаботные музыканты вдруг попадают в неожиданную передрягу и оказываются должны очень круглую сумму очень серьезному человеку - Звезде. Существование группы под угрозой, и вообще будущее весьма туманно... Но судьба втягивает ребят в удивительную авантюру с участием бизнесмена-олигарха, его зубодробильного помощника и дочери-панка, влюбленной в ботаника. Смогут ли наши герои соединить двух любящих людей и спасти свое будущее?-КиноПоиск: 3.720 (947)-Качество: DVDRip
Формат: AVI
Видео: MPEG-4 Visual, 720x304, ~1872 kbps, 25 fps
Аудио: AC3, 48 kHz, 192 kbps, 2 ch-

MediaInfo

General
Complete name : E:\загрузки\Vsj0.isprAvit.2016.DVDRip.avi
Format : AVI
Format/Info : Audio Video Interleave
File size : 1.37 GiB
Duration : 1 h 34 min
Overall bit rate : 2 075 kb/s
Writing application : VirtualDubMod 1.5.10.2 (build 2540/release)
Writing library : VirtualDubMod build 2540/release
Video
ID : 0
Format : MPEG-4 Visual
Format profile : Advanced Simple@L5
Format settings, BVOP : 2
Format settings, QPel : No
Format settings, GMC : No warppoints
Format settings, Matrix : Default (MPEG)
Codec ID : XVID
Codec ID/Hint : XviD
Duration : 1 h 34 min
Bit rate : 1 873 kb/s
Width : 720 pixels
Height : 304 pixels
Display aspect ratio : 2.35:1
Frame rate : 25.000 FPS
Color space : YUV
Chroma subsampling : 4:2:0
Bit depth : 8 bits
Scan type : Progressive
Compression mode : Lossy
Bits/(Pixel*Frame) : 0.342
Stream size : 1.23 GiB (90%)
Writing library : XviD 1.2.1 (UTC 2008-12-04)
Audio
ID : 1
Format : AC-3
Format/Info : Audio Coding 3
Mode extension : CM (complete main)
Format settings, Endianness : Big
Codec ID : 2000
Duration : 1 h 34 min
Bit rate mode : Constant
Bit rate : 192 kb/s
Channel(s) : 2 channels
Channel positions : Front: L R
Sampling rate : 48.0 kHz
Frame rate : 31.250 FPS (1536 spf)
Bit depth : 16 bits
Compression mode : Lossy
Stream size : 130 MiB (9%)
Alignment : Split accross interleaves
Interleave, duration : 40 ms (1.00 video frame)
Interleave, preload duration : 500 ms

Релиз подготовлен R.G. Films

[Профиль] ЛС
Показать сообщения:    
Ответить на тему

Текущее время: 20-Фев 08:57

Часовой пояс: UTC + 5



Вы не можете начинать темы
Вы не можете отвечать на сообщения
Вы не можете редактировать свои сообщения
Вы не можете удалять свои сообщения
Вы не можете голосовать в опросах
Вы не можете прикреплять файлы к сообщениям
Вы не можете скачивать файлы