Регистрация ·
Имя: Пароль:  
· Забыли пароль?


Война против всех / War on Everyone (Джон Майкл МакДона) [2016, Великобритания, комедия, WEB-DLRip] [чистый звук]

Ответить на тему
 
Автор Сообщение

cash ®

Пол: Не указан

Стаж: 1 год

Сообщений: 11

Репутация: 14

[+] [-]

Наличие запрета:



Награды: Нет

Создавать темы 05-Янв-2017 20:19

Цитировать

-Война против всех / War on Everyone- Страна: Великобритания
Жанр: комедия
Год выпуска: 2016
Продолжительность: 01:38:04-Перевод: Профессиональный (дублированный) [чистый звук]
Cубтитры: нет-Режиссер: Джон Майкл МакДона-В ролях: Александр Скарсгард, Тесса Томпсон, Тео Джеймс, Стефани Сигман,
Малкольм Баррет, Майкл Пенья, Тейт Флетчер, Калеб Лэндри Джонс, Пол Райзер, Кит Джардин-Описание: Двое коррумпированных копов-отморозков из Нью-Мексико прессуют всех,
кто попадается им под руку... или под колеса авто. Судьба подкидывает им шанс срубить целый миллион долларов,
но на смачный куш также претендует эксцентричный английский лорд не без странных пристрастий.
В борьбе за заслуженный улов напарники случайно узнают о стрёмных секретах красавчика-лорда и
впрягаются нести возмездие. Плохим копам не терпится попробовать нечто совсем новое -
борьбу за справедливость... ну, за то, как они понимают справедливость.-Качество видео: WEB-DLRip
Формат видео: AVI
Видео: Xvid 720x304 24fps 1733kbps
Аудио: Dolby AC3 48000Hz stereo 384kbps
-

MediaInfo

General
Complete name : E:\Films\VoYna.ProTIFF.VseX.2O16.D.WEB-DLRip.avi
Format : AVI
Format/Info : Audio Video Interleave
File size : 1.46 GiB
Duration : 1h 38mn
Overall bit rate : 2 127 Kbps
Writing application : VirtualDubMod 1.5.10.2 (build 2540/release)
Writing library : VirtualDubMod build 2540/release
Video
ID : 0
Format : MPEG-4 Visual
Format profile : Advanced Simple@L5
Format settings, BVOP : 2
Format settings, QPel : No
Format settings, GMC : No warppoints
Format settings, Matrix : Default (MPEG)
Codec ID : XVID
Codec ID/Hint : XviD
Duration : 1h 38mn
Bit rate : 1 734 Kbps
Width : 720 pixels
Height : 304 pixels
Display aspect ratio : 2.35:1
Frame rate : 24.000 fps
Color space : YUV
Chroma subsampling : 4:2:0
Bit depth : 8 bits
Scan type : Progressive
Compression mode : Lossy
Bits/(Pixel*Frame) : 0.330
Stream size : 1.19 GiB (82%)
Writing library : XviD 1.2.1 (UTC 2008-12-04)
Audio
ID : 1
Format : AC-3
Format/Info : Audio Coding 3
Mode extension : CM (complete main)
Format settings, Endianness : Big
Codec ID : 2000
Duration : 1h 38mn
Bit rate mode : Constant
Bit rate : 384 Kbps
Channel(s) : 2 channels
Channel positions : Front: L R
Sampling rate : 48.0 KHz
Bit depth : 16 bits
Compression mode : Lossy
Stream size : 269 MiB (18%)
Alignment : Split accross interleaves
Interleave, duration : 42 ms (1.00 video frame)
Interleave, preload duration : 500 ms

Скриншот c названием фильма

Скриншоты





Информация от $-Шаман-$


Картинки
с нашего хостинга
поставьте
http://img.freetor.uz/
[Профиль] ЛС

Создавать темы 16-Янв-2017 20:49 (спустя 11 дней)

Топик был перенесен из форума Фильмы 2016 года в форум Недооформленные торренты
$-Шаман-$
 
Показать сообщения:    
Ответить на тему

Текущее время: 20-Фев 04:34

Часовой пояс: UTC + 5



Вы не можете начинать темы
Вы не можете отвечать на сообщения
Вы не можете редактировать свои сообщения
Вы не можете удалять свои сообщения
Вы не можете голосовать в опросах
Вы не можете прикреплять файлы к сообщениям
Вы не можете скачивать файлы