Регистрация ·
Имя: Пароль:  
· Забыли пароль?


loading...

Вы все меня бесите / Сезон 1 / Серий 1-3 из 20 (Олег Фомин) [2017 г., комедия, WEB-DLRip]

Ответить на тему
 
Автор Сообщение

$-Шаман-$ ®

Пол: Мужской

Стаж: 2 месяца

Сообщений: 428

Репутация: 749

[+] [-]

Откуда: Ташкент Сергели р-он

Наличие запрета:



Награды: 6 (Подробнее)

250 активных раздач (Количество: 1) Активный модератор (Количество: 1) Киноман (Количество: 1) Раздал 1 TB (Количество: 1) Раздал 200 GB (Количество: 1)
Форумчанин 2 (Количество: 1)

Создавать темы 05-Янв-2017 17:20

Цитировать

Вы все меня бесите- Год выпуска: 2017
Страна: Россия
Жанр: комедия
Продолжительность: 1x ~ 00:23:39
Перевод: Не требуется-Режиссер: Олег Фомин
В ролях: Светлана Ходченкова, Пётр Фёдоров, Александр Паль, Юлия Топольницкая, Александр Петров, Николай Фоменко, Виктория Исакова, Евгений Цыганов, Юрий Колокольников, Игорь Золотовицкий, Ян Цапник, Екатерина Климова-
Соня Багрецова - журналист популярного городского издания. И в работе, и в жизни она не отличается дружелюбием и общительностью. Непростой характер мешает ей устроить личную жизнь, да Соне этого и не надо. Точнее, ей так кажется до тех пор, пока она не встречает своего нового начальника Кирилла. Тот сразу увлекается строптивой сотрудницей, но получает от Сони жёсткий отпор. И, возможно, не было бы у Кирилла шанса ее завоевать, если бы не один Сонин недостаток - буквально одна капля спиртного делает Соню самым дружелюбным и общительным человеком на свете. На открытии ресторана она позволяет себе бокал вина, и это переворачивает всю ее жизнь. Наутро она с ужасом обнаруживает, что не только провела ночь с Кириллом, но ещё и подружилась с болтливой маникюршей Нелей и соседом-таксистом Вовой.-
Качество: WEB-DLRip
Формат: AVI
Видео: MPEG-4 Visual, 720x400, ~1650 kbps, 25 fps
Аудио: MP3, 44 kHz, 192 kbps, 2 ch-Премьера (РФ): 9 января 2017-

MediaInfo

General
Complete name : E:\загрузки\Vy.vse.menya.besite.s01.e01.2016.WEB-DLRip.BigFANGroup.avi
Format : AVI
Format/Info : Audio Video Interleave
File size : 313 MiB
Duration : 23 min 39 s
Overall bit rate : 1 852 kb/s
Writing application : VirtualDubMod 1.5.10.3 | www.virtualdub-fr.org || (build 2550/release)
Writing library : VirtualDubMod build 2550/release
Video
ID : 0
Format : MPEG-4 Visual
Format profile : Advanced Simple@L5
Format settings, BVOP : 1
Format settings, QPel : No
Format settings, GMC : No warppoints
Format settings, Matrix : Default (MPEG)
Codec ID : XVID
Codec ID/Hint : XviD
Duration : 23 min 39 s
Bit rate : 1 650 kb/s
Width : 720 pixels
Height : 400 pixels
Display aspect ratio : 16:9
Frame rate : 25.000 FPS
Color space : YUV
Chroma subsampling : 4:2:0
Bit depth : 8 bits
Scan type : Progressive
Compression mode : Lossy
Bits/(Pixel*Frame) : 0.229
Stream size : 279 MiB (89%)
Writing library : XviD 1.2.1 (UTC 2008-12-04)
Audio
ID : 1
Format : MPEG Audio
Format version : Version 1
Format profile : Layer 3
Codec ID : 55
Codec ID/Hint : MP3
Duration : 23 min 39 s
Bit rate mode : Constant
Bit rate : 192 kb/s
Channel(s) : 2 channels
Sampling rate : 44.1 kHz
Compression mode : Lossy
Stream size : 32.5 MiB (10%)
Alignment : Split accross interleaves
Interleave, duration : 40 ms (1.00 video frame)
Interleave, preload duration : 500 ms
Writing library : LAME3.99r
Encoding settings : -m s -V 4 -q 2 -lowpass 18.6 -b 192

[Профиль] ЛС
Показать сообщения:    
Ответить на тему

Текущее время: 22-Фев 17:57

Часовой пояс: UTC + 5



Вы не можете начинать темы
Вы не можете отвечать на сообщения
Вы не можете редактировать свои сообщения
Вы не можете удалять свои сообщения
Вы не можете голосовать в опросах
Вы не можете прикреплять файлы к сообщениям
Вы не можете скачивать файлы