Регистрация ·
Имя: Пароль:  
· Забыли пароль?


loading...

Инферно / Inferno (Рон Ховард) [2016, США, Япония, Турция, Венгрия, Боевик, триллер, драма, криминал, детектив, WEB-DLRip] [iTunes] [Sub Rus]

Ответить на тему
 
Автор Сообщение

cash ®

Пол: Не указан

Стаж: 1 год

Сообщений: 11

Репутация: 14

[+] [-]

Наличие запрета:



Награды: Нет

Создавать темы 05-Янв-2017 07:23

Цитировать

-Инферно / Inferno- Страна: США, Япония, Турция, Венгрия
Жанр: Боевик, триллер, драма, криминал, детектив
Год выпуска: 2016
Продолжительность: 02:01:49-Перевод: Профессиональный (дублированный) [iTunes]
Cубтитры: Русские форсированные (отдельно)-Режиссер: Рон Ховард-В ролях: Том Хэнкс, Бен Фостер, Сидсе Бабетт Кнудсен, Фелисити Джонс, Ирфан Кхан, Омар Си, Ана Улару, Ката Сарбо, Ида Дарвиш, Вольфганг Штегеман-Описание: Некий миллиардер в порыве искреннего человеколюбия решает убить половину населения планеты. В своей уютной лаборантской он выводит особый штамм смертельного вируса, способного заразить 95 процентов людей за пару суток. Будучи не в силах упустить красоту момента, он зашифровывает точные координаты пакета с адским варевом в "Инферно" - первой части "Божественной комедии" Данте. Профессору Роберту Лэнгдону с практически отключенным сознанием и стертой памятью предстоит решающий мозговой штурм, от исхода которого зависит судьба миллиардов людей.-Качество видео: WEB-DLRip
Формат видео: AVI
Видео: Xvid 704x384 23.976fps 2173kbps
Аудио:Dolby AC3 48000Hz 6ch 384kbps
-

MediaInfo

General
Complete name : E:\Films\Inferno.201.WEB-DLRip.2.18Gb.MegaPeer\Inferno.201.WEB-DLRip.2.18Gb.MegaPeer.avi
Format : AVI
Format/Info : Audio Video Interleave
Format profile : OpenDML
Format settings : rec
File size : 2.18 GiB
Duration : 2h 1mn
Overall bit rate : 2 562 Kbps
Writing application : AVI-Mux GUI 1.17.8.3, Feb 16 201019:42:50
Video
ID : 0
Format : MPEG-4 Visual
Codec ID : XVID
Codec ID/Hint : XviD
Duration : 2h 1mn
Source duration : 6mn 59s
Bit rate : 145 Kbps
Width : 704 pixels
Height : 384 pixels
Display aspect ratio : 1.85:1
Frame rate : 23.976 fps
Color space : YUV
Chroma subsampling : 4:2:0
Compression mode : Lossy
Bits/(Pixel*Frame) : 0.022
Stream size : 126 MiB (6%)
Audio
ID : 1
Format : AC-3
Format/Info : Audio Coding 3
Codec ID : 2000
Duration : 2h 1mn
Source duration : 7mn 0s
Bit rate mode : Constant
Bit rate : 384 Kbps
Channel(s) : 6 channels
Sampling rate : 48.0 KHz
Compression mode : Lossy
Stream size : 19.2 MiB (1%)
Alignment : Aligned on interleaves
Interleave, duration : 64 ms (1.53 video frames)
Interleave, preload duration : 192 ms
Title : iTunes

Скриншот c названием фильма

Скриншоты




Информация от $-Шаман-$


Картинки
с нашего хостинга
поставьте
http://img.freetor.uz/
[Профиль] ЛС

cash ®

Пол: Не указан

Стаж: 1 год

Сообщений: 11

Репутация: 14

[+] [-]

Наличие запрета:



Награды: Нет

Создавать темы 05-Янв-2017 10:32 (спустя 3 часа)

Цитировать

Здесь 6 - канальный звук ув. Модератор
[Профиль] ЛС

PlayBoy

Пол: Мужской

Стаж: 1 год 2 месяца

Сообщений: 137

Репутация: 2104

[+] [-]

Откуда: ★☯✩Inte®Net✩☯★

Наличие запрета:



Награды: 2 (Подробнее)

Админ (Количество: 1) Редиска (Количество: 1)

Создавать темы 05-Янв-2017 11:06 (спустя 33 минуты)

Цитировать

повтор это когда совпадают размер с точностью до битрейта, этот фильм превышает размер ~130 MB так что золото и проверено
[Профиль] ЛС

Создавать темы 16-Янв-2017 20:52 (спустя 11 дней)

Топик был перенесен из форума Фильмы 2016 года в форум Недооформленные торренты
$-Шаман-$
 
Показать сообщения:    
Ответить на тему

Текущее время: 22-Фев 17:59

Часовой пояс: UTC + 5



Вы не можете начинать темы
Вы не можете отвечать на сообщения
Вы не можете редактировать свои сообщения
Вы не можете удалять свои сообщения
Вы не можете голосовать в опросах
Вы не можете прикреплять файлы к сообщениям
Вы не можете скачивать файлы