Регистрация ·
Имя: Пароль:  
· Забыли пароль?


Мы чудовища / Wir Monster (Себастьян Ко / Sebastian Ko) [2015 г., триллер, драма, DVDRip]

Ответить на тему
 
Автор Сообщение

$-Шаман-$ ®

Пол: Мужской

Стаж: 1 месяц 29 дней

Сообщений: 412

Репутация: 748

[+] [-]

Откуда: Ташкент Сергели р-он

Наличие запрета:



Награды: 6 (Подробнее)

250 активных раздач (Количество: 1) Активный модератор (Количество: 1) Киноман (Количество: 1) Раздал 1 TB (Количество: 1) Раздал 200 GB (Количество: 1)
Форумчанин 2 (Количество: 1)

Создавать темы 04-Янв-2017 22:25

Цитировать

Мы чудовища / Wir Monster- Год выпуска: 2015
Страна: Германия
Жанр: триллер, драма
Продолжительность: 01:36:16
Перевод: Любительский (многоголосый, закадровый) | Синема УС-Режиссер: Себастьян Ко / Sebastian Ko
В ролях: Мехди Неббу, Ульрике С. Чарре, Янина Фауц, Рональд Кукулис, Бритта Шаммельштайн, Даниэль Древес, Marie Bendig, Доминик Бух, Marc Fischer, Керстин Тилеманн-Описание: Родители девочки-подростка Сары в разводе, впрочем, весьма мирном. На этой неделе задача отца, музыкального продюсера, доставить дочь в летний лагерь. Неожиданной попутчицей становится разбитная подруга Сары Чарли, сорвавшаяся на приключения без ведома своего запойного папаши, - странно, но не страшно. Страшно будет позже: совершив вынужденную остановку в лесу - «природа зовет», галдели девчонки, - отец не сразу дозовется дочь. Найдет он ее на плотине у водохранилища, дрожащую от ужаса и смятения: Сара только что столкнула свою подругу в омут...-IMDb: 6.40 (68)-Качество: DVDRip
Формат: AVI
Видео: MPEG-4 Visual, 720x400, ~1639 kbps, 23,976 fps
Аудио: AC3, 48 kHz, 384 kbps, 2 ch-

MediaInfo

General
Complete name : E:\загрузки\We.Monsters.2015.P.DVDRip.14OOMB_KOSHARA.avi
Format : AVI
Format/Info : Audio Video Interleave
File size : 1.37 GiB
Duration : 1 h 36 min
Overall bit rate : 2 033 kb/s
Writing application : VirtualDubMod 1.5.10.2 (build 2540/release)
Writing library : VirtualDubMod build 2540/release
Video
ID : 0
Format : MPEG-4 Visual
Format profile : Advanced Simple@L5
Format settings, BVOP : 2
Format settings, QPel : No
Format settings, GMC : No warppoints
Format settings, Matrix : Default (MPEG)
Codec ID : XVID
Codec ID/Hint : XviD
Duration : 1 h 36 min
Bit rate : 1 640 kb/s
Width : 720 pixels
Height : 400 pixels
Display aspect ratio : 16:9
Frame rate : 23.976 (24000/1001) FPS
Color space : YUV
Chroma subsampling : 4:2:0
Bit depth : 8 bits
Scan type : Progressive
Compression mode : Lossy
Bits/(Pixel*Frame) : 0.237
Stream size : 1.10 GiB (81%)
Writing library : XviD 1.2.1 (UTC 2008-12-04)
Audio
ID : 1
Format : AC-3
Format/Info : Audio Coding 3
Mode extension : CM (complete main)
Format settings, Endianness : Big
Codec ID : 2000
Duration : 1 h 36 min
Bit rate mode : Constant
Bit rate : 384 kb/s
Channel(s) : 2 channels
Channel positions : Front: L R
Sampling rate : 48.0 kHz
Frame rate : 31.250 FPS (1536 spf)
Bit depth : 16 bits
Compression mode : Lossy
Stream size : 264 MiB (19%)
Alignment : Split accross interleaves
Interleave, duration : 42 ms (1.00 video frame)
Interleave, preload duration : 500 ms

Релиз подготовлен R.G. Films

[Профиль] ЛС
Показать сообщения:    
Ответить на тему

Текущее время: 20-Фев 08:56

Часовой пояс: UTC + 5



Вы не можете начинать темы
Вы не можете отвечать на сообщения
Вы не можете редактировать свои сообщения
Вы не можете удалять свои сообщения
Вы не можете голосовать в опросах
Вы не можете прикреплять файлы к сообщениям
Вы не можете скачивать файлы