Регистрация ·
Имя: Пароль:  
· Забыли пароль?


Макс Стил / Max Steel (Стюарт Хендлер) [2016, фантастика, боевик, приключения, HDRip] [Чистый звук]

Ответить на тему
 
Автор Сообщение

cash ®

Пол: Не указан

Стаж: 1 год

Сообщений: 11

Репутация: 14

[+] [-]

Наличие запрета:



Награды: Нет

Создавать темы 04-Янв-2017 10:17

Цитировать

-Макс Стил | Max Steel- Год выпуска: 2016
Страна: Великобритания, США
Жанр: фантастика, боевик, приключения
Продолжительность: 01:31:47
Перевод: Дублированный (чистый звук)-Режиссер: Стюарт Хендлер-В ролях: Бен Уинчелл, Джош Бренер, Мария Белло, Энди Гарсиа, Ана Виллафейн,
Майк Дойл, Филлип ДеВона, Билли Слотер, Эл Митчелл, Лоуренс Као-Описание: Когда подросток Макс МакГрат обнаруживает, что его тело может генерировать
наиболее мощную энергию во Вселенной, ему приходится встретиться с единственным существом,
способным совладать с такой энергией - таинственным техно-органическим инопланетянином по имени Стил.-Качество: HDRip
Формат: AVI
Видео: Xvid 720x304 23.976fps 1649kbps
Аудио: Dolby AC3 48000Hz stereo 448kbps
-

MI

General
Complete name : E:\Films\Max.Steel.2016.D.HDRip.14OOMB_KOSHARA.avi
Format : AVI
Format/Info : Audio Video Interleave
File size : 1.37 GiB
Duration : 1h 32mn
Overall bit rate : 2 107 Kbps
Writing application : VirtualDubMod 1.5.10.2 (build 2540/release)
Writing library : VirtualDubMod build 2540/release
Video
ID : 0
Format : MPEG-4 Visual
Format profile : Advanced Simple@L5
Format settings, BVOP : 2
Format settings, QPel : No
Format settings, GMC : No warppoints
Format settings, Matrix : Custom
Codec ID : XVID
Codec ID/Hint : XviD
Duration : 1h 32mn
Bit rate : 1 650 Kbps
Width : 720 pixels
Height : 304 pixels
Display aspect ratio : 2.35:1
Frame rate : 23.976 fps
Color space : YUV
Chroma subsampling : 4:2:0
Bit depth : 8 bits
Scan type : Progressive
Compression mode : Lossy
Bits/(Pixel*Frame) : 0.314
Stream size : 1.07 GiB (78%)
Writing library : XviD 1.2.1 (UTC 2008-12-04)
Audio
ID : 1
Format : AC-3
Format/Info : Audio Coding 3
Mode extension : CM (complete main)
Format settings, Endianness : Big
Codec ID : 2000
Duration : 1h 32mn
Bit rate mode : Constant
Bit rate : 448 Kbps
Channel(s) : 2 channels
Channel positions : Front: L R
Sampling rate : 48.0 KHz
Bit depth : 16 bits
Compression mode : Lossy
Stream size : 298 MiB (21%)
Alignment : Split accross interleaves
Interleave, duration : 42 ms (1.00 video frame)
Interleave, preload duration : 500 ms

Скриншоты



[Профиль] ЛС
Показать сообщения:    
Ответить на тему

Текущее время: 20-Фев 08:55

Часовой пояс: UTC + 5



Вы не можете начинать темы
Вы не можете отвечать на сообщения
Вы не можете редактировать свои сообщения
Вы не можете удалять свои сообщения
Вы не можете голосовать в опросах
Вы не можете прикреплять файлы к сообщениям
Вы не можете скачивать файлы