Регистрация ·
Имя: Пароль:  
· Забыли пароль?


loading...

Озеро Бодом / Bodom (Танели Мустонен / Taneli Mustonen) [2016 г., ужасы, WEB-DLRip]

Ответить на тему
 
Автор Сообщение

$-Шаман-$ ®

Пол: Мужской

Стаж: 2 месяца

Сообщений: 428

Репутация: 749

[+] [-]

Откуда: Ташкент Сергели р-он

Наличие запрета:



Награды: 6 (Подробнее)

250 активных раздач (Количество: 1) Активный модератор (Количество: 1) Киноман (Количество: 1) Раздал 1 TB (Количество: 1) Раздал 200 GB (Количество: 1)
Форумчанин 2 (Количество: 1)

Создавать темы 03-Янв-2017 22:55

Цитировать

Озеро Бодом / Bodom- Год выпуска: 2016
Страна: Финляндия, Эстония
Жанр: ужасы
Продолжительность: 01:24:18
Перевод: Любительский (одноголосый закадровый) Хихикающий доктор-Режиссер: Танели Мустонен / Taneli Mustonen
В ролях: Томми Корпела, Mimosa Willamo, Nelly Hirst-Gee, Mikael Gabriel, Santeri Helinheimo Mäntylä, Яркко Ниеми, Илка Хайсканен, Sami Eerola, Pirjo Moilanen, Iiris Kankkunen, Вилле Саксела, Otso Ahosola-Описание: В 1960 году на озере Бодом неизвестным маньяком были убиты четверо подростков. И теперь, много лет спустя, современные двое парней и две девушки решают переночевать в палатках в том самом месте. Один из ребят знает ту страшную историю досконально, а страшные истории для того и нужны, чтобы делать из них правильные выводы.-IMDb: 5.10 (402)-Качество: WEB-DLRip
Формат: AVI
Видео: MPEG-4 Visual, 720x304, ~1909 kbps, 24 fps
Аудио #1: AC3, 44 kHz, 192 kbps, 2 ch
Аудио #2: AC3, 48 kHz, 192 kbps, 2 ch-

MediaInfo

General
Complete name : E:\загрузки\Bodom (2016) WEB-DLRip.avi
Format : AVI
Format/Info : Audio Video Interleave
Format profile : OpenDML
Format settings : rec
File size : 1.35 GiB
Duration : 1 h 24 min
Overall bit rate : 2 300 kb/s
Movie name : Rip by basma4i
Writing application : AVI-Mux GUI 1.17.8.3, Feb 16 201019:42:50
Video
ID : 0
Format : MPEG-4 Visual
Format profile : Advanced Simple@L5
Format settings, BVOP : No
Format settings, QPel : No
Format settings, GMC : 3 warppoints
Format settings, Matrix : Default (H.263)
Codec ID : XVID
Codec ID/Hint : XviD
Duration : 1 h 24 min
Bit rate : 1 909 kb/s
Width : 720 pixels
Height : 304 pixels
Display aspect ratio : 2.35:1
Frame rate : 24.000 FPS
Color space : YUV
Chroma subsampling : 4:2:0
Bit depth : 8 bits
Scan type : Progressive
Compression mode : Lossy
Bits/(Pixel*Frame) : 0.363
Stream size : 1.12 GiB (83%)
Writing library : XviD 62
Audio #1
ID : 1
Format : AC-3
Format/Info : Audio Coding 3
Mode extension : CM (complete main)
Format settings, Endianness : Big
Codec ID : 2000
Duration : 1 h 24 min
Bit rate mode : Constant
Bit rate : 192 kb/s
Channel(s) : 2 channels
Channel positions : Front: L R
Sampling rate : 44.1 kHz
Frame rate : 28.711 FPS (1536 spf)
Bit depth : 16 bits
Compression mode : Lossy
Stream size : 116 MiB (8%)
Alignment : Aligned on interleaves
Interleave, duration : 70 ms (1.67 video frames)
Interleave, preload duration : 208 ms
Title : xixidok
Audio #2
ID : 2
Format : AC-3
Format/Info : Audio Coding 3
Mode extension : CM (complete main)
Format settings, Endianness : Big
Codec ID : 2000
Duration : 1 h 24 min
Bit rate mode : Constant
Bit rate : 192 kb/s
Channel(s) : 2 channels
Channel positions : Front: L R
Sampling rate : 48.0 kHz
Frame rate : 31.250 FPS (1536 spf)
Bit depth : 16 bits
Compression mode : Lossy
Stream size : 116 MiB (8%)
Alignment : Aligned on interleaves
Interleave, duration : 64 ms (1.54 video frames)
Interleave, preload duration : 192 ms

Релиз подготовлен R.G. Films

[Профиль] ЛС
Показать сообщения:    
Ответить на тему

Текущее время: 22-Фев 17:59

Часовой пояс: UTC + 5



Вы не можете начинать темы
Вы не можете отвечать на сообщения
Вы не можете редактировать свои сообщения
Вы не можете удалять свои сообщения
Вы не можете голосовать в опросах
Вы не можете прикреплять файлы к сообщениям
Вы не можете скачивать файлы