Регистрация ·
Имя: Пароль:  
· Забыли пароль?


Капсула / Capsule (Эндрю Мартин / Andrew Martin) [2015 г., фантастика, триллер, драма, WEB-DLRip]

Ответить на тему
 
Автор Сообщение

$-Шаман-$ ®

Пол: Мужской

Стаж: 2 месяца 2 дня

Сообщений: 428

Репутация: 749

[+] [-]

Откуда: Ташкент Сергели р-он

Наличие запрета:



Награды: 6 (Подробнее)

250 активных раздач (Количество: 1) Активный модератор (Количество: 1) Киноман (Количество: 1) Раздал 1 TB (Количество: 1) Раздал 200 GB (Количество: 1)
Форумчанин 2 (Количество: 1)

Создавать темы 03-Янв-2017 13:37

Цитировать

Капсула / Capsule-
Год выпуска: 2015
Страна: Великобритания
Жанр: фантастика, триллер, драма, история
Продолжительность: 01:31:53
Перевод: Перевод: Любительский (многоголосый, закадровый) | Синема УС
-Режиссер: Эндрю Мартин / Andrew Martin
В ролях: Эдмунд Кингсли, Лиза Гринвуд, Найджел Барбер, Дэвид Уайман, Ged Petkunas, Edgar Rove, Dimitar Stoyanov, Josephine Fellows, Мики Кольтес, Polina Pospyelova, Кэтрин Минсер, Aleksandrs Skaceks-
Пилот английской космической капсулы из-за неполадок с двигателем застрял в космосе и не может вернуться домой. Помощи ждать неоткуда. Надеяться можно только на себя.-КиноПоиск: 3.464 (163)
IMDb: 8.30 (177)-
Качество: WEB-DLRip
Формат: AVI
Видео: MPEG-4 Visual, 720x304, ~1743 kbps, 24 fps
Аудио: AC3, 48 kHz, 384 kbps, 2 ch-

MediaInfo

General
Complete name : E:\загрузки\Capsule.2016.P.WEB-DLRip.14OOMB_KOSHARA.avi
Format : AVI
Format/Info : Audio Video Interleave
File size : 1.37 GiB
Duration : 1 h 31 min
Overall bit rate : 2 137 kb/s
Writing application : VirtualDubMod 1.5.10.2 (build 2540/release)
Writing library : VirtualDubMod build 2540/release
Video
ID : 0
Format : MPEG-4 Visual
Format profile : Advanced Simple@L5
Format settings, BVOP : 2
Format settings, QPel : No
Format settings, GMC : No warppoints
Format settings, Matrix : Custom
Codec ID : XVID
Codec ID/Hint : XviD
Duration : 1 h 31 min
Bit rate : 1 744 kb/s
Width : 720 pixels
Height : 304 pixels
Display aspect ratio : 2.35:1
Frame rate : 24.000 FPS
Color space : YUV
Chroma subsampling : 4:2:0
Bit depth : 8 bits
Scan type : Progressive
Compression mode : Lossy
Bits/(Pixel*Frame) : 0.332
Stream size : 1.12 GiB (82%)
Writing library : XviD 1.2.1 (UTC 2008-12-04)
Audio
ID : 1
Format : AC-3
Format/Info : Audio Coding 3
Mode extension : CM (complete main)
Format settings, Endianness : Big
Codec ID : 2000
Duration : 1 h 31 min
Bit rate mode : Constant
Bit rate : 384 kb/s
Channel(s) : 2 channels
Channel positions : Front: L R
Sampling rate : 48.0 kHz
Frame rate : 31.250 FPS (1536 spf)
Bit depth : 16 bits
Compression mode : Lossy
Stream size : 252 MiB (18%)
Alignment : Split accross interleaves
Interleave, duration : 42 ms (1.00 video frame)
Interleave, preload duration : 500 ms

Релиз подготовлен R.G. Films

[Профиль] ЛС
Показать сообщения:    
Ответить на тему

Текущее время: 24-Фев 04:17

Часовой пояс: UTC + 5



Вы не можете начинать темы
Вы не можете отвечать на сообщения
Вы не можете редактировать свои сообщения
Вы не можете удалять свои сообщения
Вы не можете голосовать в опросах
Вы не можете прикреплять файлы к сообщениям
Вы не можете скачивать файлы