Регистрация ·
Имя: Пароль:  
· Забыли пароль?


Первенец | FirstBorn (Нирпал Бхогал) [2016 г., ужасы,LowHDRip] [Xixidok]

Ответить на тему
 
Автор Сообщение

$-Шаман-$ ®

Пол: Мужской

Стаж: 1 месяц 29 дней

Сообщений: 412

Репутация: 748

[+] [-]

Откуда: Ташкент Сергели р-он

Наличие запрета:



Награды: 6 (Подробнее)

250 активных раздач (Количество: 1) Активный модератор (Количество: 1) Киноман (Количество: 1) Раздал 1 TB (Количество: 1) Раздал 200 GB (Количество: 1)
Форумчанин 2 (Количество: 1)

Создавать темы 02-Янв-2017 05:06

Цитировать

Первенец / FirstBorn- Год выпуска: 2016 г.
Страна: Великобритания
Жанр: ужасы
Продолжительность: 01:24:31- Перевод: Любительский одноголосый [Xixidok]- Режиссер: Нирпал Бхогал- В ролях: Антония Томас, Джонатан Хайд, Люк Норрис, Люси Чаппель, Эйлин Дейвис, Джорджи Смит- Описание:
Семейная жизнь молодой пары переворачивается вверх дном, когда с рождением первого ребенка появляется страшная сущность, которая угрожает им.- Качество видео: LowHDRip
Формат видео: AVI
Видео кодек: XviD
Аудио кодек: MP3- Видео: 640x272 (2.35:1), 24 fps, XviD MPEG-4 ~944 kbps avg, 0.23 bit/pixel
Аудио: 44.100 kHz, MPEG Layer 3, 2 ch, ~192.00 kbps avg- -

MediaInfo

Format : AVI
Format/Info : Audio Video Interleave
File size : 740 MiB
Duration : 1h 30mn
Overall bit rate : 1 146 Kbps
Writing application : VirtualDubMod 1.5.10.3 (build 2550/release)
Writing library : VirtualDubMod build 2550/release
Video
ID : 0
Format : MPEG-4 Visual
Format profile : Advanced Simple@L5
Format settings, BVOP : 2
Format settings, QPel : No
Format settings, GMC : No warppoints
Format settings, Matrix : Default (H.263)
Muxing mode : Packed bitstream
Codec ID : XVID
Codec ID/Hint : XviD
Duration : 1h 30mn
Bit rate : 945 Kbps
Width : 640 pixels
Height : 272 pixels
Display aspect ratio : 2.35:1
Frame rate : 24.000 fps
Color space : YUV
Chroma subsampling : 4:2:0
Bit depth : 8 bits
Scan type : Progressive
Compression mode : Lossy
Bits/(Pixel*Frame) : 0.226
Stream size : 610 MiB (82%)
Writing library : XviD 64
Audio
ID : 1
Format : MPEG Audio
Format version : Version 1
Format profile : Layer 3
Codec ID : 55
Codec ID/Hint : MP3
Duration : 1h 30mn
Bit rate mode : Constant
Bit rate : 192 Kbps
Channel(s) : 2 channels
Sampling rate : 44.1 KHz
Compression mode : Lossy
Stream size : 124 MiB (17%)
Alignment : Split accross interleaves
Interleave, duration : 42 ms (1.00 video frame)
Interleave, preload duration : 500 ms

Релиз подготовлен R.G. Films

[Профиль] ЛС
Показать сообщения:    
Ответить на тему

Текущее время: 20-Фев 04:34

Часовой пояс: UTC + 5



Вы не можете начинать темы
Вы не можете отвечать на сообщения
Вы не можете редактировать свои сообщения
Вы не можете удалять свои сообщения
Вы не можете голосовать в опросах
Вы не можете прикреплять файлы к сообщениям
Вы не можете скачивать файлы