Регистрация ·
Имя: Пароль:  
· Забыли пароль?


КВН-2016. Высшая лига. 55 лет. Юбилейный выпуск (2016.11.27 Юмор SATRip. )

Ответить на тему
 
Автор Сообщение

$-Шаман-$ ®

Пол: Мужской

Стаж: 1 месяц 29 дней

Сообщений: 412

Репутация: 748

[+] [-]

Откуда: Ташкент Сергели р-он

Наличие запрета:



Награды: 6 (Подробнее)

250 активных раздач (Количество: 1) Активный модератор (Количество: 1) Киноман (Количество: 1) Раздал 1 TB (Количество: 1) Раздал 200 GB (Количество: 1)
Форумчанин 2 (Количество: 1)

Создавать темы 02-Янв-2017 04:40

Цитировать

КВН-2016.
Год выпуска: 2016
Страна: Россия
Жанр: Юмор
Продолжительность: ~2 часа
Ведущий:
Александр Масляков.
Жюри:
Антон Комолов, Геннадий Хазанов, Александр Ширвиндт, Иван Демидов, Дмитрий Нагиев, Константин Эрнст, Юлий Гусман.
Описание:
Отпраздновать 55-летие КВН на большой кремлевской сцене собрались легендарные команды, участники которых сами по себе уже давно стали звездами, однако в который раз ребята вышли на сцену, чтобы пошутить, посмеяться и признаться в любви к КВН.Качество: SATRip.
Формат: AVI
Видео: Xvid 704x448 25fps 1796kbps
Аудио: Dolby AC3 48000Hz stereo 192kbps

Команды:

«Пирамида», Владикавказ
Сборная РУДН
Дагестан («Махачкалинские бродяги» + сборная Дагестана)
«Максимум», Томск
«Новые армяне»
«Мегаполис», Москва
Сборная Пятигорска
«Уральские пельмени»
«Утомленные солнцем», Краснодарский край

MediaInfo

Format : AVI
Format/Info : Audio Video Interleave
File size : 1.62 GiB
Duration : 1h 56mn
Overall bit rate : 1 999 Kbps
Writing application : VirtualDubMod 1.5.10.3 | www.virtualdub-fr.org || (build 2550/release)
Writing library : VirtualDub build 35491/release
Video
ID : 0
Format : MPEG-4 Visual
Format profile : Advanced Simple@L5
Format settings, BVOP : 2
Format settings, QPel : No
Format settings, GMC : No warppoints
Format settings, Matrix : Default (H.263)
Codec ID : XVID
Codec ID/Hint : XviD
Duration : 1h 56mn
Bit rate : 1 797 Kbps
Width : 704 pixels
Height : 448 pixels
Display aspect ratio : 16:10
Frame rate : 25.000 fps
Color space : YUV
Chroma subsampling : 4:2:0
Bit depth : 8 bits
Scan type : Progressive
Compression mode : Lossy
Bits/(Pixel*Frame) : 0.228
Stream size : 1.46 GiB (90%)
Writing library : XviD 1.2.1 (UTC 2008-12-04)
Audio
ID : 1
Format : AC-3
Format/Info : Audio Coding 3
Mode extension : CM (complete main)
Format settings, Endianness : Big
Codec ID : 2000
Duration : 1h 56mn
Bit rate mode : Constant
Bit rate : 192 Kbps
Channel(s) : 2 channels
Channel positions : Front: L R
Sampling rate : 48.0 KHz
Compression mode : Lossy
Stream size : 160 MiB (10%)
Alignment : Split accross interleaves
Interleave, duration : 40 ms (1.00 video frame)
Interleave, preload duration : 500 ms

[Профиль] ЛС

lordtraum

Пол: Мужской

Стаж: 2 месяца 15 дней

Сообщений: 18

Репутация: 10

[+] [-]

Откуда: Лос- Гулистанжелес

Наличие запрета:



Награды: Нет

Создавать темы 06-Янв-2017 17:39 (спустя 4 дня)

Цитировать

Скорости бы....
[Профиль] ЛС
Показать сообщения:    
Ответить на тему

Текущее время: 20-Фев 04:35

Часовой пояс: UTC + 5



Вы не можете начинать темы
Вы не можете отвечать на сообщения
Вы не можете редактировать свои сообщения
Вы не можете удалять свои сообщения
Вы не можете голосовать в опросах
Вы не можете прикреплять файлы к сообщениям
Вы не можете скачивать файлы