Регистрация ·
Имя: Пароль:  
· Забыли пароль?


loading...

Новый Comedy Club [Новогодний выпуск "Караоке Star" - 1-2 часть] (31.12.2016г.,Юмористическое шоу)

Ответить на тему
 
Автор Сообщение

$-Шаман-$ ®

Пол: Мужской

Стаж: 2 месяца

Сообщений: 428

Репутация: 749

[+] [-]

Откуда: Ташкент Сергели р-он

Наличие запрета:



Награды: 6 (Подробнее)

250 активных раздач (Количество: 1) Активный модератор (Количество: 1) Киноман (Количество: 1) Раздал 1 TB (Количество: 1) Раздал 200 GB (Количество: 1)
Форумчанин 2 (Количество: 1)

Создавать темы 02-Янв-2017 03:37

Цитировать

Новый Comedy Club [Новогодний выпуск "Караоке Star" - 1-2 часть] Год выхода: 2016
Произведено: Россия, ТНТ, Comedy Club Production
Жанр: Юмористическое шоу
Продолжительность: 00:47:00( 1 часть)
Режиссер: Ксения Чашей, Дмитрий Ефимович, Роман Новиков, Гарик Мартиросян

Сергей Светлаков, Семен Слепаков, Группа USB - United Sexy Boys, Сергей Гореликов, Павел Воля, Тимур Батрутдинов, Виктор Васильев и Дмитрий Хрусталев, Дуэт «Рома и Леша», Зураб Матуа, Андрей Аверин, Дмитрий «Люсёк» Сорокин, Александр Незлобин и Элвис


На ТНТ решили отказаться от банальных голубых огоньков и устроили новогодний музыкальный баттл. Включайте ТНТ ровно в 23.00, накладывайте салаты, и с набитым ртом подпевайте своим любимым звездам! В вокальном новогоднем баттле сойдутся звезды «Дома-2», шоу «ТАНЦЫ», актеры комедийных проектов «Импровизация», «Однажды в России», Comedy Woman, ситкомов «Ольга» и «Универ», а также комики из Stand Up. Оценивать исполнительское мастерство участников будут Михаил Галустян и Сергей Светлаков. Победитель поедет в Лас-Вегас.
Качество: SATRip
Формат: AVI
Видео: Xvid 720x400 24.994fps 1799kbps
Аудио: MP3 48000Hz stereo 192kbps

MediaInfo

Format : AVI
Format/Info : Audio Video Interleave
File size : 620 MiB
Duration : 43mn 14s
Overall bit rate : 2 005 Kbps
Writing application : VirtualDubMod 1.5.10.3 (build 2550/release)
Writing library : VirtualDubMod build 2550/release
Video
ID : 0
Format : MPEG-4 Visual
Format profile : Advanced Simple@L5
Format settings, BVOP : 1
Format settings, QPel : No
Format settings, GMC : No warppoints
Format settings, Matrix : Default (H.263)
Codec ID : XVID
Codec ID/Hint : XviD
Duration : 43mn 13s
Bit rate : 1 800 Kbps
Width : 720 pixels
Height : 400 pixels
Display aspect ratio : 16:9
Frame rate : 25.000 fps
Color space : YUV
Chroma subsampling : 4:2:0
Bit depth : 8 bits
Scan type : Progressive
Compression mode : Lossy
Bits/(Pixel*Frame) : 0.250
Stream size : 557 MiB (90%)
Writing library : XviD 67
Audio
ID : 1
Format : MPEG Audio
Format version : Version 1
Format profile : Layer 3
Mode : Joint stereo
Mode extension : MS Stereo
Codec ID : 55
Codec ID/Hint : MP3
Duration : 43mn 14s
Bit rate mode : Constant
Bit rate : 192 Kbps
Channel(s) : 2 channels
Sampling rate : 48.0 KHz
Compression mode : Lossy
Stream size : 59.4 MiB (10%)
Alignment : Aligned on interleaves
Interleave, duration : 24 ms (0.60 video frame)
Interleave, preload duration : 504 ms
Writing library : LAME3.99.5ЄЄЄЄЄЄЄЄЄЄ

[Профиль] ЛС
Показать сообщения:    
Ответить на тему

Текущее время: 22-Фев 18:00

Часовой пояс: UTC + 5



Вы не можете начинать темы
Вы не можете отвечать на сообщения
Вы не можете редактировать свои сообщения
Вы не можете удалять свои сообщения
Вы не можете голосовать в опросах
Вы не можете прикреплять файлы к сообщениям
Вы не можете скачивать файлы