Регистрация ·
Имя: Пароль:  
· Забыли пароль?


Гонки по-итальянски / Rosso Mille Miglia (Клаудио Уберти) [2015 г., приключения, мелодрама, детектив, WEB-DLRip]

Ответить на тему
 
Автор Сообщение

$-Шаман-$ ®

Пол: Мужской

Стаж: 1 месяц 29 дней

Сообщений: 412

Репутация: 748

[+] [-]

Откуда: Ташкент Сергели р-он

Наличие запрета:



Награды: 6 (Подробнее)

250 активных раздач (Количество: 1) Активный модератор (Количество: 1) Киноман (Количество: 1) Раздал 1 TB (Количество: 1) Раздал 200 GB (Количество: 1)
Форумчанин 2 (Количество: 1)

Создавать темы 30-Дек-2016 10:13

Цитировать

Гонки по-итальянски / Rosso Mille Miglia- Год выпуска: 2015
Страна: Италия, Россия
Жанр: приключения, мелодрама, детектив, комедия
Продолжительность: 01:34:22
Перевод: Профессиональный многоголосый [iTunes]-Режиссер: Клаудио Уберти
В ролях: Мартина Стелла, Фабио Тройяно, Ремо Джироне, Франческа Реттондини, Виктория Дзинни, Людмила Бикмуллина, Маурицио Франконе, Паоло Маццетти, Розарио Петикс-Описание: Журналистка Мария приезжает в город Брешиа, чтобы сделать репортаж о ралли ретро-автомобилей «1000 миль». Девушка предлагает знакомому механику Марко принять участие в соревнованиях: он будет водителем, она - штурманом. Марко соглашается, а вот мать героини не слишком рада такому повороту событий. Дело в том, что много лет назад дедушка Марии, участвуя в гонке «1000 миль», попал аварию, которая разрушила его спортивную карьеру. Готовясь к ралли, Мария начинает выяснять обстоятельства того злополучного происшествия и приходит к выводу, что здесь кроется какая-то тайна...-КиноПоиск: 5.088 (204)
IMDb: 6.30 (76)-Качество: WEB-DLRip
Формат: AVI
Видео: MPEG-4 Visual, 720x304, ~1683 kbps, 25 fps
Аудио: AC3, 48 kHz, 384 kbps, 2 ch-

MediaInfo

General
Complete name : E:\Rosso.Mille.Miglia.2015.P.WEB-DLRip..avi
Format : AVI
Format/Info : Audio Video Interleave
File size : 1.37 GiB
Duration : 1 h 34 min
Overall bit rate : 2 077 kb/s
Writing application : VirtualDubMod 1.5.10.3 | www.virtualdub-fr.org || (build 2550/release)
Writing library : VirtualDubMod build 2550/release
Video
ID : 0
Format : MPEG-4 Visual
Format profile : Advanced Simple@L5
Format settings, BVOP : 2
Format settings, QPel : No
Format settings, GMC : No warppoints
Format settings, Matrix : Custom
Codec ID : XVID
Codec ID/Hint : XviD
Duration : 1 h 34 min
Bit rate : 1 683 kb/s
Width : 720 pixels
Height : 304 pixels
Display aspect ratio : 2.35:1
Frame rate : 25.000 FPS
Color space : YUV
Chroma subsampling : 4:2:0
Bit depth : 8 bits
Scan type : Progressive
Compression mode : Lossy
Bits/(Pixel*Frame) : 0.308
Stream size : 1.11 GiB (81%)
Writing library : XviD 1.2.1 (UTC 2008-12-04)
Audio
ID : 1
Format : AC-3
Format/Info : Audio Coding 3
Mode extension : CM (complete main)
Format settings, Endianness : Big
Codec ID : 2000
Duration : 1 h 34 min
Bit rate mode : Constant
Bit rate : 384 kb/s
Channel(s) : 2 channels
Channel positions : Front: L R
Sampling rate : 48.0 kHz
Frame rate : 31.250 FPS (1536 spf)
Bit depth : 16 bits
Compression mode : Lossy
Stream size : 259 MiB (18%)
Alignment : Split accross interleaves
Interleave, duration : 40 ms (1.00 video frame)
Interleave, preload duration : 500 ms

Релиз подготовлен R.G. Films

[Профиль] ЛС
Показать сообщения:    
Ответить на тему

Текущее время: 20-Фев 04:34

Часовой пояс: UTC + 5



Вы не можете начинать темы
Вы не можете отвечать на сообщения
Вы не можете редактировать свои сообщения
Вы не можете удалять свои сообщения
Вы не можете голосовать в опросах
Вы не можете прикреплять файлы к сообщениям
Вы не можете скачивать файлы