Регистрация ·
Имя: Пароль:  
· Забыли пароль?


Звёздные войны: Эпизод VII - Пробуждение Силы | Star Wars: Episode VII - The Force Awakens (Джей Джей Абрамс) [2015 г., фантастика, боевик, приключения, BDRip 720p]

Ответить на тему
 
Автор Сообщение

MrPREDATOR ®

Пол: Мужской

Стаж: 2 месяца 1 день

Сообщений: 4

Репутация: 0

[+] [-]

Откуда: Tashkent

Наличие запрета:



Награды: Нет

Создавать темы 26-Дек-2016 14:40

Цитировать

-Звёздные войны: Эпизод VII - Пробуждение Силы- Год выпуска: 2015 г.
Страна: США
Жанр: фантастика, боевик, приключения
Продолжительность: 02:17:33--Перевод: Профессиональный (дублированный)
Режиссер: Джей Джей Абрамс
В ролях: Джон Бойега, Дэйзи Ридли, Оскар Айзек, Адам Драйвер, Донал Глисон, Харрисон Форд, Марк Хэмилл, Кэрри Фишер, Макс фон Сюдов, Энди Серкис, Лупита Нионго, Энтони Дэниелс.--Описание: Через тридцать лет после гибели Дарта Вейдера и Императора галактика по-прежнему в опасности. Государственное образование Новый Порядок во главе с их таинственным верховным лидером Сноуком и его правой рукой Кайло Реном идёт по стопам Империи, пытаясь захватить всю власть. В это нелёгкое время судьба сводит юную девушку Рей и бывшего штурмовика Нового Порядка Финна с героями времён войны с Империей — Ханом Соло, Чубаккой и Королевой Леей. Вместе они должны дать бой Новому Порядку, однако настаёт тот момент, когда становится очевидно, что лишь джедаи могут остановить Сноука и Кайло Рена. И в галактике в живых остаётся только один…-Качество видео: BDRip 720p
Формат видео: MKV
Видео кодек: Другой MPEG4
Аудио кодек: AC3
Видео: AVC 1280x536 23.976fps 5290kbps
Аудио: AC3 48000Hz 1509kbps
-

MediaInfo

Уникальный идентификатор : 230286603132795378204687269796833485282 (0xAD3F9623525DA9B3BA7F633CA00D61E2)
Полное имя : D:\Фильмы\Star Wars\Star.Wars_Episode.7.The Force Awakens.2015.720p.BDRip.mkv
Формат : Matroska
Версия формата : Version 4 / Version 2
Размер файла : 6,93 Гбайт
Продолжительность : 2 ч. 18 м.
Общий поток : 7185 Кбит/сек
Название фильма : Star Wars.The Force Awakens
Дата кодирования : UTC 2016-03-31 21:20:48
Программа кодирования : mkvmerge v7.9.0 ('Birds') 32bit
Библиотека кодирования : libebml v1.3.1 + libmatroska v1.4.2
_STATISTICS_WRITING_APP : mkvmerge v7.9.0 ('Birds') 32bit
_STATISTICS_WRITING_DATE_UTC : 2016-03-31 21:20:48
_STATISTICS_TAGS : BPS DURATION NUMBER_OF_FRAMES NUMBER_OF_BYTES
DURATION : 02:03:13.656000000
NUMBER_OF_FRAMES : 1422
NUMBER_OF_BYTES : 62924
Видео
Идентификатор : 1
Формат : AVC
Формат/Информация : Advanced Video Codec
Профиль формата : High@L4.1
Параметр CABAC формата : Да
Параметр ReFrames формата : 5 кадров
Идентификатор кодека : V_MPEG4/ISO/AVC
Продолжительность : 2 ч. 18 м.
Битрейт : 5290 Кбит/сек
Ширина : 1280 пикселей
Высота : 536 пикселей
Соотношение сторон : 2,40:1
Режим частоты кадров : Постоянный
Частота кадров : 23,976 кадра/сек
Цветовое пространство : YUV
Субдискретизация насыщенности : 4:2:0
Битовая глубина : 8 бит
Тип развёртки : Прогрессивная
Бит/(Пиксели*Кадры) : 0.322
Размер потока : 4,97 Гбайт (72%)
Заголовок : Star.Wars.Episode.VII.The.Force.Awakens.2015.720p.BluRay.x264-Replica
Библиотека кодирования : x264 core 148 r2665 a01e339
Настройки программы : cabac=1 / ref=5 / deblock=1:0:0 / analyse=0x3:0x113 / me=umh / subme=8 / psy=1 / psy_rd=1.00:0.00 / mixed_ref=1 / me_range=16 / chroma_me=1 / trellis=1 / 8x8dct=1 / cqm=0 / deadzone=21,11 / fast_pskip=0 / chroma_qp_offset=-2 / threads=17 / lookahead_threads=2 / sliced_threads=0 / nr=0 / decimate=1 / interlaced=0 / bluray_compat=0 / constrained_intra=0 / bframes=3 / b_pyramid=2 / b_adapt=2 / b_bias=0 / direct=3 / weightb=1 / open_gop=0 / weightp=2 / keyint=250 / keyint_min=23 / scenecut=40 / intra_refresh=0 / rc_lookahead=50 / rc=2pass / mbtree=1 / bitrate=5290 / ratetol=1.0 / qcomp=0.60 / qpmin=0 / qpmax=69 / qpstep=4 / cplxblur=20.0 / qblur=0.5 / ip_ratio=1.40 / aq=1:1.00
Язык : English
Default : Да
Forced : Нет
_STATISTICS_WRITING_APP : mkvmerge v7.9.0 ('Birds') 32bit
_STATISTICS_WRITING_DATE_UTC : 2016-03-31 21:20:48
_STATISTICS_TAGS : BPS DURATION NUMBER_OF_FRAMES NUMBER_OF_BYTES
DURATION : 02:18:06.695000000
NUMBER_OF_FRAMES : 198682
NUMBER_OF_BYTES : 5478654476
Аудио #1
Идентификатор : 2
Формат : AC-3
Формат/Информация : Audio Coding 3
Расширение режима : CM (complete main)
Параметр Endianness формата : Big
Идентификатор кодека : A_AC3
Продолжительность : 2 ч. 18 м.
Вид битрейта : Постоянный
Битрейт : 384 Кбит/сек
Каналы : 6 каналов
Расположение каналов : Front: L C R, Side: L R, LFE
Частота : 48,0 КГц
Битовая глубина : 16 бит
Метод сжатия : С потерями
Размер потока : 379 Мбайт (5%)
Заголовок : DUB [iTunes]
Язык : Russian
Default : Да
Forced : Нет
Аудио #2
Идентификатор : 3
Формат : DTS
Формат/Информация : Digital Theater Systems
Режим : 16
Параметр Endianness формата : Big
Идентификатор кодека : A_DTS
Продолжительность : 2 ч. 18 м.
Вид битрейта : Постоянный
Битрейт : 1509 Кбит/сек
Каналы : 6 каналов
Расположение каналов : Front: L C R, Side: L R, LFE
Частота : 48,0 КГц
Битовая глубина : 24 бит
Метод сжатия : С потерями
Размер потока : 1,46 Гбайт (21%)
Заголовок : English DTS 5.1
Язык : English
Default : Нет
Forced : Нет
Текст #1
Идентификатор : 4
Формат : UTF-8
Идентификатор кодека : S_TEXT/UTF8
Идентификатор кодека/Информация : UTF-8 Plain Text
Заголовок : forced
Язык : Russian
Default : Да
Forced : Нет
Текст #2
Идентификатор : 5
Формат : UTF-8
Идентификатор кодека : S_TEXT/UTF8
Идентификатор кодека/Информация : UTF-8 Plain Text
Язык : Russian
Default : Нет
Forced : Нет
Текст #3
Идентификатор : 6
Формат : UTF-8
Идентификатор кодека : S_TEXT/UTF8
Идентификатор кодека/Информация : UTF-8 Plain Text
Заголовок : English regular
Язык : English
Default : Нет
Forced : Нет
Текст #4
Идентификатор : 7
Формат : UTF-8
Идентификатор кодека : S_TEXT/UTF8
Идентификатор кодека/Информация : UTF-8 Plain Text
Заголовок : English sdh
Язык : English
Default : Нет
Forced : Нет
-СКРИНШОТЫ-
[Профиль] ЛС

PlayBoy

Пол: Мужской

Стаж: 1 год 2 месяца

Сообщений: 143

Репутация: 2104

[+] [-]

Откуда: ★☯✩Inte®Net✩☯★

Наличие запрета:



Награды: 2 (Подробнее)

Админ (Количество: 1) Редиска (Количество: 1)

Создавать темы 26-Дек-2016 18:03 (спустя 3 часа)

Цитировать

Немного подправил размер не обязательно большим делать так норм. и подправил фотку которая наверху
[Профиль] ЛС

MrPREDATOR ®

Пол: Мужской

Стаж: 2 месяца 1 день

Сообщений: 4

Репутация: 0

[+] [-]

Откуда: Tashkent

Наличие запрета:



Награды: Нет

Создавать темы 27-Дек-2016 13:28 (спустя 19 часов)

Цитировать

#1 NUMBER ONE, Спасибо, запомнил как все делать и исправлю в следующем релизе!
[Профиль] ЛС
Показать сообщения:    
Ответить на тему

Текущее время: 24-Фев 04:17

Часовой пояс: UTC + 5



Вы не можете начинать темы
Вы не можете отвечать на сообщения
Вы не можете редактировать свои сообщения
Вы не можете удалять свои сообщения
Вы не можете голосовать в опросах
Вы не можете прикреплять файлы к сообщениям
Вы не можете скачивать файлы