Регистрация ·
Имя: Пароль:  
· Забыли пароль?


loading...

Бегущая от реальности / Complete Unknown (Джошуа Марстон / Joshua Marston) [2016 г., драма, детектив, WEB-DLRip-1080p]

Ответить на тему
 
Автор Сообщение

$-Шаман-$ ®

Пол: Мужской

Стаж: 2 месяца

Сообщений: 428

Репутация: 749

[+] [-]

Откуда: Ташкент Сергели р-он

Наличие запрета:



Награды: 6 (Подробнее)

250 активных раздач (Количество: 1) Активный модератор (Количество: 1) Киноман (Количество: 1) Раздал 1 TB (Количество: 1) Раздал 200 GB (Количество: 1)
Форумчанин 2 (Количество: 1)

Создавать темы 26-Дек-2016 14:13

Цитировать

Бегущая от реальности / Complete Unknown- Год выпуска: 2016
Страна: США
Жанр: драма, детектив
Продолжительность: 01:31:51
Перевод: Дублированный - iTunes-Режиссер: Джошуа Марстон / Joshua Marston
В ролях: Рэйчел Вайс, Майкл Шеннон, Кэти Бейтс, Дэнни Гловер, Кондола Рашад, Майкл Чернус, Эрин Майя Дарк, Гензель Тан, ФаТай, Зэк Аппельман, Азита Ганизада, Омар Метуолли-Описание: Во время ужина в день своего рождения Том встречает среди гостей загадочную девушку по имени Элис. Том убежден, что они были знакомы и более чем близки, но таинственная гостья не признается и представляется совершенно другим человеком. Когда Элис сбегает, Том следует за ней, бросается в неизвестность. Вместе они становятся абсолютно свободными, анонимными, теряются в толпе мегаполиса. Эта полная приключений ночь - их шанс изменить жизнь...--Качество: WEB-DLRip 1080p
Формат: MKV
Видео: AVC, 1916x796, ~4655 kbps, 23,976 fps
Аудио #1: AC3, 48 kHz, 384 kbps, 6 ch | Русский
Аудио #2: AC3, 48 kHz, 384 kbps, 6 ch | Английский
-

MediaInfo

General
Unique ID : 188267678987680936376511618191322938313 (0x8DA3093AB8A6B1B58F98F4F63E4E7BC9)
Complete name : E:\загрузки\BeGUschaYa.2016.D.WEB-DL.1O8Op.mkv
Format : Matroska
Format version : Version 2
File size : 3.48 GiB
Duration : 1 h 31 min
Overall bit rate : 5 426 kb/s
Encoded date : UTC 2016-12-25 19:16:34
Writing application : mkvmerge v8.3.0 ('Over the Horizon') 64bit
Writing library : libebml v1.3.1 + libmatroska v1.4.2
Video
ID : 1
Format : AVC
Format/Info : Advanced Video Codec
Format profile : High@L4
Format settings, CABAC : Yes
Format settings, ReFrames : 5 frames
Codec ID : V_MPEG4/ISO/AVC
Duration : 1 h 31 min
Bit rate : 4 656 kb/s
Width : 1 916 pixels
Height : 796 pixels
Display aspect ratio : 2.40:1
Frame rate mode : Constant
Frame rate : 23.976 (23976/1000) FPS
Color space : YUV
Chroma subsampling : 4:2:0
Bit depth : 8 bits
Scan type : Progressive
Bits/(Pixel*Frame) : 0.127
Stream size : 2.99 GiB (86%)
Language : English
Default : Yes
Forced : No
Color range : Limited
Color primaries : BT.709
Transfer characteristics : BT.709
Matrix coefficients : BT.709
Audio #1
ID : 2
Format : AC-3
Format/Info : Audio Coding 3
Mode extension : CM (complete main)
Format settings, Endianness : Big
Codec ID : A_AC3
Duration : 1 h 31 min
Bit rate mode : Constant
Bit rate : 384 kb/s
Channel(s) : 6 channels
Channel positions : Front: L C R, Side: L R, LFE
Sampling rate : 48.0 kHz
Frame rate : 31.250 FPS (1536 spf)
Bit depth : 16 bits
Compression mode : Lossy
Stream size : 252 MiB (7%)
Language : Russian
Default : Yes
Forced : No
Audio #2
ID : 3
Format : AC-3
Format/Info : Audio Coding 3
Mode extension : CM (complete main)
Format settings, Endianness : Big
Codec ID : A_AC3
Duration : 1 h 31 min
Bit rate mode : Constant
Bit rate : 384 kb/s
Channel(s) : 6 channels
Channel positions : Front: L C R, Side: L R, LFE
Sampling rate : 48.0 kHz
Frame rate : 31.250 FPS (1536 spf)
Bit depth : 16 bits
Compression mode : Lossy
Stream size : 252 MiB (7%)
Language : English
Default : No
Forced : No
Menu
00:00:00.000 : en:1
00:05:43.718 : en:2
00:12:03.139 : en:3
00:21:40.841 : en:4
00:25:51.007 : en:5
00:31:48.364 : en:6
00:35:30.711 : en:7
00:39:08.512 : en:8
00:42:23.415 : en:9
00:46:53.226 : en:10
00:51:19.116 : en:11
01:00:57.903 : en:12
01:07:48.897 : en:13
01:12:29.802 : en:14
01:19:22.589 : en:15
01:23:49.272 : en:16

[Профиль] ЛС

Dionis-J

Пол: Мужской

Стаж: 1 год

Сообщений: 15

Репутация: 46

[+] [-]

Откуда: Ташкент , Северо-восток 2

Наличие запрета:



Награды: 1 (Подробнее)

Раздал 1 TB (Количество: 1)

Создавать темы 26-Дек-2016 17:53 (спустя 3 часа)

Цитировать

:aa: Вкладка ПИРЫ > добавить пир... - 31.135.214.16:63142 , до 26 . 03-ого числа !!!:az:
[Профиль] ЛС
Показать сообщения:    
Ответить на тему

Текущее время: 22-Фев 18:02

Часовой пояс: UTC + 5



Вы не можете начинать темы
Вы не можете отвечать на сообщения
Вы не можете редактировать свои сообщения
Вы не можете удалять свои сообщения
Вы не можете голосовать в опросах
Вы не можете прикреплять файлы к сообщениям
Вы не можете скачивать файлы