Регистрация ·
Имя: Пароль:  
· Забыли пароль?


loading...

Убийство Салазара / Killing Salazar (Киони Ваксман / Keoni Waxman) [2016 г., боевик, DVDRip]

Ответить на тему
 
Автор Сообщение

$-Шаман-$ ®

Пол: Мужской

Стаж: 2 месяца

Сообщений: 428

Репутация: 749

[+] [-]

Откуда: Ташкент Сергели р-он

Наличие запрета:



Награды: 6 (Подробнее)

250 активных раздач (Количество: 1) Активный модератор (Количество: 1) Киноман (Количество: 1) Раздал 1 TB (Количество: 1) Раздал 200 GB (Количество: 1)
Форумчанин 2 (Количество: 1)

Создавать темы 26-Дек-2016 12:22

Цитировать

Убийство Салазара / Killing Salazar- Год выпуска: 2016
Страна: США
Жанр: боевик
Продолжительность: 01:39:16
Перевод: Любительский многоголосый- Режиссер: Киони Ваксман / Keoni Waxman
В ролях: Стивен Сигал, Люк Госс, Жорж Сен-Пьер, Даррен Э. Скотт, Флорин Пьерсик мл., Мартин Аргент, Лауро Чартрэнд, Брюс Кроуфорд, Claudiu Bleont, Ховард Делл, George Ramos, Адина Галупа- Описание: Салазар, лидер европейской мафии, пытается выйти из бизнеса, имитируя свою собственную смерть. Он участвует в программе защиты свидетелей, и его охраняет отдел по борьбе с наркотиками. Но план Салазара рушится, и за его голову назначена награда, которую хотят получить его бывшие подельники.- IMDb: 7.30 (32)- Качество: DVDRip
Формат: AVI
Видео: xvid, 720x480, ~1991 kbps, 25 fps
Аудио: MP3, 44 kHz, 128 kbps, 2 ch-

MediaInfo

General
Complete name : E:\загрузки\Killing Salazar_2016_rip_Tamplier72.avi
Format : AVI
Format/Info : Audio Video Interleave
Format profile : OpenDML
File size : 1.48 GiB
Duration : 1 h 39 min
Overall bit rate : 2 133 kb/s
Writing application : Lavf56.15.102
Video
ID : 0
Format : xvid
Codec ID : xvid
Duration : 1 h 39 min
Bit rate : 1 991 kb/s
Width : 720 pixels
Height : 480 pixels
Display aspect ratio : 3:2
Frame rate : 25.000 FPS
Scan type : Progressive
Bits/(Pixel*Frame) : 0.230
Stream size : 1.38 GiB (93%)
Audio
ID : 1
Format : MPEG Audio
Format version : Version 1
Format profile : Layer 3
Mode : Joint stereo
Mode extension : MS Stereo
Codec ID : 55
Codec ID/Hint : MP3
Duration : 1 h 39 min
Bit rate mode : Constant
Bit rate : 128 kb/s
Channel(s) : 2 channels
Sampling rate : 44.1 kHz
Compression mode : Lossy
Stream size : 90.9 MiB (6%)
Alignment : Aligned on interleaves
Interleave, duration : 26 ms (0.65 video frame)
Writing library : LAME3.98.4

Релиз подготовлен R.G. Films

[Профиль] ЛС
Показать сообщения:    
Ответить на тему

Текущее время: 22-Фев 17:58

Часовой пояс: UTC + 5



Вы не можете начинать темы
Вы не можете отвечать на сообщения
Вы не можете редактировать свои сообщения
Вы не можете удалять свои сообщения
Вы не можете голосовать в опросах
Вы не можете прикреплять файлы к сообщениям
Вы не можете скачивать файлы