Регистрация ·
Имя: Пароль:  
· Забыли пароль?


Источник (Надежда Витальская) [2016 г., драма, WEB-DLRip]

Ответить на тему
 
Автор Сообщение

$-Шаман-$ ®

Пол: Мужской

Стаж: 1 месяц 29 дней

Сообщений: 412

Репутация: 748

[+] [-]

Откуда: Ташкент Сергели р-он

Наличие запрета:



Награды: 6 (Подробнее)

250 активных раздач (Количество: 1) Активный модератор (Количество: 1) Киноман (Количество: 1) Раздал 1 TB (Количество: 1) Раздал 200 GB (Количество: 1)
Форумчанин 2 (Количество: 1)

Создавать темы 25-Дек-2016 17:01

Цитировать

Источник- Год выпуска: 2016
Страна: Россия
Жанр: драма
Продолжительность: 01:31:31
Перевод: Не требуется (iTunes)-Режиссер: Надежда Витальская
В ролях: Иван Янковский, Валентина Колева, Роза Хайруллина, Александр Рапопорт, Павел Делонг, Светлана Нарышкина, Денис Курочка, Максим Заусалин, Игорь Черкашин, Яна Кошкина, Олег Граф- Иван, типичный житель современного мегаполиса, по работе приезжает в провинциальный город. По плану здесь на месте лесного массива будет построен туристический комплекс. Осматривая место для строительства в лесу, Иван встречает юную красавицу Алёну и влюбляется в неё. Алёна не похожа на тех девушек, с которыми Иван встречался раньше, он околдован её свежестью и чистотой. Вспыхнувшему чувству молодых людей мешает всё: и власти города, и старший брат Ивана, и обстоятельства, складывающиеся не в их пользу. А самое главное то, что они абсолютно из разных миров. Смогут ли они преодолеть все препятствия и быть вместе, ведь они такие разные?...--Качество: WEB-DLRip
Формат: AVI
Видео: MPEG-4 Visual, 688x288, ~1004 kbps, 24 fps
Аудио: MP3, 48 kHz, 128 kbps, 2 ch -

MediaInfo

General
Complete name : E:\загрузки\Istohnik.2016.WEB-DLRip.745MB.avi
Format : AVI
Format/Info : Audio Video Interleave
File size : 745 MiB
Duration : 1 h 31 min
Overall bit rate : 1 138 kb/s
Video
ID : 0
Format : MPEG-4 Visual
Format profile : Advanced Simple@L5
Format settings, BVOP : 1
Format settings, QPel : No
Format settings, GMC : No warppoints
Format settings, Matrix : Custom
Codec ID : XVID
Codec ID/Hint : XviD
Duration : 1 h 31 min
Bit rate : 1 005 kb/s
Width : 688 pixels
Height : 288 pixels
Display aspect ratio : 2.40:1
Frame rate : 24.000 FPS
Color space : YUV
Chroma subsampling : 4:2:0
Bit depth : 8 bits
Scan type : Progressive
Compression mode : Lossy
Bits/(Pixel*Frame) : 0.211
Stream size : 658 MiB (88%)
Writing library : XviD 73
Audio
ID : 1
Format : MPEG Audio
Format version : Version 1
Format profile : Layer 3
Mode : Joint stereo
Mode extension : MS Stereo
Codec ID : 55
Codec ID/Hint : MP3
Duration : 1 h 31 min
Bit rate mode : Constant
Bit rate : 128 kb/s
Channel(s) : 2 channels
Sampling rate : 48.0 kHz
Compression mode : Lossy
Stream size : 83.8 MiB (11%)
Alignment : Aligned on interleaves
Interleave, duration : 167 ms (4.00 video frames)
Interleave, preload duration : 216 ms
Title : iTunes
Writing library : LAME3.99r
Encoding settings : -m j -V 4 -q 2 -lowpass 17 -b 128

[Профиль] ЛС
Показать сообщения:    
Ответить на тему

Текущее время: 20-Фев 08:52

Часовой пояс: UTC + 5



Вы не можете начинать темы
Вы не можете отвечать на сообщения
Вы не можете редактировать свои сообщения
Вы не можете удалять свои сообщения
Вы не можете голосовать в опросах
Вы не можете прикреплять файлы к сообщениям
Вы не можете скачивать файлы