Регистрация ·
Имя: Пароль:  
· Забыли пароль?


Афера по-английски / Trespass Against Us (Адам Смит / Adam Smith) [2016 г., боевик, триллер, драма, WEB-DLRip]

Ответить на тему
 
Автор Сообщение

$-Шаман-$ ®

Пол: Мужской

Стаж: 1 месяц 29 дней

Сообщений: 412

Репутация: 748

[+] [-]

Откуда: Ташкент Сергели р-он

Наличие запрета:



Награды: 6 (Подробнее)

250 активных раздач (Количество: 1) Активный модератор (Количество: 1) Киноман (Количество: 1) Раздал 1 TB (Количество: 1) Раздал 200 GB (Количество: 1)
Форумчанин 2 (Количество: 1)

Создавать темы 24-Дек-2016 21:57

Цитировать

Афера по-английски / Trespass Against Us- Год выпуска: 2016
Страна: Великобритания
Жанр: боевик, триллер, драма, криминал
Продолжительность:
01:39:36
Перевод:
Любительский многоголосый (Синема УС)-Режиссер:
Адам Смит / Adam Smith
В ролях:
Майкл Фассбендер, Брендан Глисон, Линдси Маршал, Джорджи Смит, Рори Киннер, Киллиан Скотт, Шон Харрис, Кингсли Бен-Адир, Кейси Андерсон, Герард Кернс, Тони Вэй, Барри Кеоган-Описание:
Чэд - великолепный гонщик. Он работает на своего отца, криминального авторитета, и виртуозно уходит от любой погони. Все было хорошо, пока Чэд не решил завязать. Отец заставил пойти на последнее дело. Вот только роскошный особняк, в который вломились грабители, принадлежал самому могущественному человеку в Англии. А он не прощает ошибок...-IMDb: 6.50 (270)-Качество: WEB-DLRip
Формат: AVI
Видео: MPEG-4 Visual, 720x304, ~1760 kbps, 30 fps
Аудио: AC3, 48 kHz, 192 kbps, 2 ch-

MediaInfo

General
Complete name : E:\загрузки\AFeRa.Po.AnGliCKi.2O16.P.WEBRip.14OOMB_KOSHARA.avi
Format : AVI
Format/Info : Audio Video Interleave
File size : 1.37 GiB
Duration : 1 h 39 min
Overall bit rate : 1 964 kb/s
Writing application : VirtualDubMod 1.5.10.2 (build 2540/release)
Writing library : VirtualDubMod build 2540/release
Video
ID : 0
Format : MPEG-4 Visual
Format profile : Advanced Simple@L5
Format settings, BVOP : 2
Format settings, QPel : No
Format settings, GMC : No warppoints
Format settings, Matrix : Custom
Codec ID : XVID
Codec ID/Hint : XviD
Duration : 1 h 39 min
Bit rate : 1 761 kb/s
Width : 720 pixels
Height : 304 pixels
Display aspect ratio : 2.35:1
Frame rate : 30.000 FPS
Color space : YUV
Chroma subsampling : 4:2:0
Bit depth : 8 bits
Scan type : Progressive
Compression mode : Lossy
Bits/(Pixel*Frame) : 0.268
Stream size : 1.22 GiB (90%)
Writing library : XviD 1.2.1 (UTC 2008-12-04)
Audio
ID : 1
Format : AC-3
Format/Info : Audio Coding 3
Mode extension : CM (complete main)
Format settings, Endianness : Big
Codec ID : 2000
Duration : 1 h 39 min
Bit rate mode : Constant
Bit rate : 192 kb/s
Channel(s) : 2 channels
Channel positions : Front: L R
Sampling rate : 48.0 kHz
Frame rate : 31.250 FPS (1536 spf)
Bit depth : 16 bits
Compression mode : Lossy
Stream size : 137 MiB (10%)
Alignment : Split accross interleaves
Interleave, duration : 33 ms (1.00 video frame)
Interleave, preload duration : 500 ms

[Профиль] ЛС
Показать сообщения:    
Ответить на тему

Текущее время: 20-Фев 04:34

Часовой пояс: UTC + 5



Вы не можете начинать темы
Вы не можете отвечать на сообщения
Вы не можете редактировать свои сообщения
Вы не можете удалять свои сообщения
Вы не можете голосовать в опросах
Вы не можете прикреплять файлы к сообщениям
Вы не можете скачивать файлы