Регистрация ·
Имя: Пароль:  
· Забыли пароль?


Сровняй счет | Chalk It Up (Хисонни Джонсон) [2016 г., комедия, WEB-DLRip]

Ответить на тему
 
Автор Сообщение

$-Шаман-$ ®

Пол: Мужской

Стаж: 1 месяц 29 дней

Сообщений: 412

Репутация: 748

[+] [-]

Откуда: Ташкент Сергели р-он

Наличие запрета:



Награды: 6 (Подробнее)

250 активных раздач (Количество: 1) Активный модератор (Количество: 1) Киноман (Количество: 1) Раздал 1 TB (Количество: 1) Раздал 200 GB (Количество: 1)
Форумчанин 2 (Количество: 1)

Создавать темы 24-Дек-2016 21:29

Цитировать

Сровняй счет / Chalk It Up
Год выпуска: 2016 г.
Страна: США
Жанр: комедия
Продолжительность:
01:30:31
Перевод:
Любительский (многоголосое) [Синема-УС]
Режиссер:
Хисонни Джонсон
В ролях:
Мэдди Керли, Джон ДеЛюка, Никки СуХу, Эндрю Сили, Джули Уорнер, Томас Фаулер, Николас Гонсалес, Тара Пейдж, Рэйчел Брук Смит, Svetlana Boguinskaia
Описание:
Когда главную героиню бросает парень, она принимает решение завоевать его снова. Для этого ей придется создать в колледже женскую команду по гимнастике. Но в процессе Эпл понимает, что способна и достойна большего, чем просто стать чьей-то женой.
Качество видео: WEB-DLRip
Формат видео: AVI
Видео: Xvid 720x400 23.976fps 1768kbps
Аудио: Dolby AC3 48000Hz stereo 384kbps

MI

Format : AVI
Format/Info : Audio Video Interleave
File size : 1.37 GiB
Duration : 1h 30mn
Overall bit rate : 2 162 Kbps
Writing application : VirtualDubMod 1.5.10.2 (build 2540/release)
Writing library : VirtualDubMod build 2540/release
Video
ID : 0
Format : MPEG-4 Visual
Format profile : Advanced Simple@L5
Format settings, BVOP : 2
Format settings, QPel : No
Format settings, GMC : No warppoints
Format settings, Matrix : Default (MPEG)
Codec ID : XVID
Codec ID/Hint : XviD
Duration : 1h 30mn
Bit rate : 1 769 Kbps
Width : 720 pixels
Height : 400 pixels
Display aspect ratio : 16:9
Frame rate : 23.976 fps
Color space : YUV
Chroma subsampling : 4:2:0
Bit depth : 8 bits
Scan type : Progressive
Compression mode : Lossy
Bits/(Pixel*Frame) : 0.256
Stream size : 1.12 GiB (82%)
Writing library : XviD 1.2.1 (UTC 2008-12-04)
Audio
ID : 1
Format : AC-3
Format/Info : Audio Coding 3
Mode extension : CM (complete main)
Format settings, Endianness : Big
Codec ID : 2000
Duration : 1h 30mn
Bit rate mode : Constant
Bit rate : 384 Kbps
Channel(s) : 2 channels
Channel positions : Front: L R
Sampling rate : 48.0 KHz
Compression mode : Lossy
Stream size : 249 MiB (18%)
Alignment : Split accross interleaves
Interleave, duration : 42 ms (1.00 video frame)
Interleave, preload duration : 500 ms

[Профиль] ЛС
Показать сообщения:    
Ответить на тему

Текущее время: 20-Фев 08:57

Часовой пояс: UTC + 5



Вы не можете начинать темы
Вы не можете отвечать на сообщения
Вы не можете редактировать свои сообщения
Вы не можете удалять свои сообщения
Вы не можете голосовать в опросах
Вы не можете прикреплять файлы к сообщениям
Вы не можете скачивать файлы