Регистрация ·
Имя: Пароль:  
· Забыли пароль?


Пьяная фирма / Сезон: 1 / Серии: 1-4 из 4 (Григорий Константинопольский) [2016, Комедия, SATRip-AVC]

Ответить на тему
 
Автор Сообщение

$-Шаман-$ ®

Пол: Мужской

Стаж: 2 месяца 3 дня

Сообщений: 427

Репутация: 749

[+] [-]

Откуда: Ташкент Сергели р-он

Наличие запрета:



Награды: 6 (Подробнее)

250 активных раздач (Количество: 1) Активный модератор (Количество: 1) Киноман (Количество: 1) Раздал 1 TB (Количество: 1) Раздал 200 GB (Количество: 1)
Форумчанин 2 (Количество: 1)

Создавать темы 24-Дек-2016 13:11

Цитировать

Пьяная фирма - Год выпуска: 2016
Страна: Россия
Жанр: комедия
Продолжительность: 1 х ~ 00:46:22
Перевод: Не требуется-Режиссер: Григорий Константинопольский
В ролях: Михаил Ефремов, Елизавета Боярская, Иван Макаревич, Анна Михалкова, Марат Башаров, Виктория Исакова, Юрий Колокольников, Ирина Апексимова, Александр Петров, Евгений Цыганов, Виктория Толстоганова, Ингеборга Дапкунайте-Описание: Похмельный сериал про гениального врача, который выводит богатых людей из запоя одному только ему известным методом.-КиноПоиск: 5.737 (699)-Качество: SATRip-AVC
Формат: MKV
Видео: AVC, 720x294, ~1500 kbps, 25 fps
Аудио: AC3, 48 kHz, 192 kbps, 2 ch-

MediaInfo

General
Unique ID : 252987544234892951234843821661870440585 (0xBE53A0F279F8EFBF8CDCCE58BB594089)
Complete name : E:\загрузки\2.mkv
Format : Matroska
Format version : Version 2
File size : 562 MiB
Duration : 46 min 22 s
Overall bit rate : 1 694 kb/s
Encoded date : UTC 2016-12-20 15:14:50
Writing application : mkvmerge v7.8.0 ('River Man') 32bit built on Apr 3 2015 12:11:22
Writing library : libebml v1.3.1 + libmatroska v1.4.2
Video
ID : 1
Format : AVC
Format/Info : Advanced Video Codec
Format profile : High@L3.1
Format settings, CABAC : Yes
Format settings, ReFrames : 14 frames
Codec ID : V_MPEG4/ISO/AVC
Duration : 46 min 22 s
Bit rate : 1 500 kb/s
Width : 720 pixels
Height : 294 pixels
Display aspect ratio : 2.40:1
Frame rate mode : Constant
Frame rate : 25.000 FPS
Color space : YUV
Chroma subsampling : 4:2:0
Bit depth : 8 bits
Scan type : Progressive
Bits/(Pixel*Frame) : 0.283
Stream size : 487 MiB (87%)
Writing library : x264 core 148 r2638 7599210
Encoding settings : cabac=1 / ref=14 / deblock=1:-1:-1 / analyse=0x3:0x133 / me=umh / subme=9 / psy=1 / psy_rd=1.00:0.15 / mixed_ref=0 / me_range=32 / chroma_me=1 / trellis=2 / 8x8dct=1 / cqm=0 / deadzone=21,11 / fast_pskip=0 / chroma_qp_offset=-3 / threads=3 / lookahead_threads=3 / sliced_threads=0 / nr=0 / decimate=0 / interlaced=0 / bluray_compat=0 / constrained_intra=0 / bframes=14 / b_pyramid=2 / b_adapt=1 / b_bias=0 / direct=3 / weightb=1 / open_gop=0 / weightp=2 / keyint=250 / keyint_min=25 / scenecut=40 / intra_refresh=0 / rc_lookahead=70 / rc=2pass / mbtree=1 / bitrate=1500 / ratetol=1.0 / qcomp=0.80 / qpmin=0 / qpmax=40 / qpstep=4 / cplxblur=20.0 / qblur=0.5 / ip_ratio=1.40 / aq=1:1.20
Default : Yes
Forced : No
Color range : Limited
Color primaries : BT.601 PAL
Transfer characteristics : BT.470 System B, BT.470 System G
Matrix coefficients : BT.601
Audio
ID : 2
Format : AC-3
Format/Info : Audio Coding 3
Mode extension : CM (complete main)
Format settings, Endianness : Big
Codec ID : A_AC3
Duration : 46 min 22 s
Bit rate mode : Constant
Bit rate : 192 kb/s
Channel(s) : 2 channels
Channel positions : Front: L R
Sampling rate : 48.0 kHz
Frame rate : 31.250 FPS (1536 spf)
Bit depth : 16 bits
Compression mode : Lossy
Stream size : 63.7 MiB (11%)
Default : Yes
Forced : No

[Профиль] ЛС

$-Шаман-$ ®

Пол: Мужской

Стаж: 2 месяца 3 дня

Сообщений: 427

Репутация: 749

[+] [-]

Откуда: Ташкент Сергели р-он

Наличие запрета:



Награды: 6 (Подробнее)

250 активных раздач (Количество: 1) Активный модератор (Количество: 1) Киноман (Количество: 1) Раздал 1 TB (Количество: 1) Раздал 200 GB (Количество: 1)
Форумчанин 2 (Количество: 1)

Создавать темы 24-Дек-2016 13:12 (спустя 1 минута)

Цитировать

1 серию перезалью потом на MKV
[Профиль] ЛС

80-region

Пол: Мужской

Стаж: 2 месяца 4 дня

Сообщений: 2

Репутация: 15

[+] [-]

Откуда: Бухара

Наличие запрета:



Награды: Нет

Создавать темы 27-Дек-2016 02:02 (спустя 2 дня 12 часов)

Цитировать

дайте скорости!!!!!!!!!!!!!!!!!!!!!!!!
[Профиль] ЛС
Показать сообщения:    
Ответить на тему

Текущее время: 25-Фев 20:52

Часовой пояс: UTC + 5



Вы не можете начинать темы
Вы не можете отвечать на сообщения
Вы не можете редактировать свои сообщения
Вы не можете удалять свои сообщения
Вы не можете голосовать в опросах
Вы не можете прикреплять файлы к сообщениям
Вы не можете скачивать файлы