Регистрация ·
Имя: Пароль:  
· Забыли пароль?


Врач (Гоша Куценко) [2016 г., драма, WEB-DLRip] [iTunes]

Ответить на тему
 
Автор Сообщение

$-Шаман-$ ®

Пол: Мужской

Стаж: 1 месяц 29 дней

Сообщений: 412

Репутация: 748

[+] [-]

Откуда: Ташкент Сергели р-он

Наличие запрета:



Награды: 6 (Подробнее)

250 активных раздач (Количество: 1) Активный модератор (Количество: 1) Киноман (Количество: 1) Раздал 1 TB (Количество: 1) Раздал 200 GB (Количество: 1)
Форумчанин 2 (Количество: 1)

Создавать темы 22-Дек-2016 12:44

Цитировать

Врач- Год выпуска: 2016
Страна: Россия
Жанр: драма
Продолжительность: 01:39:57
Перевод: Оригинал [iTunes]-Режиссер: Гоша Куценко
В ролях: Гоша Куценко, Мария Порошина, Александр Яцко, Юрий Кузнецов, Анна Михалкова, Виктория Корлякова, Алёна Хмельницкая, Любовь Руденко, Олеся Железняк, Инна Пиварс, Виктор Иванов, Яна Кошкина-Описание: Юрий Михайлович работает нейрохирургом в городской больнице. Его день состоит из операций, осмотров больных, попыток выбить квоты на размещение пациентов. Каждый день он оглашает людям страшные диагнозы и, словно мольбы о помиловании, выслушивает вопросы о том, есть ли хоть какая-нибудь надежда.--Качество: WEB-DLRip
Формат: AVI
Видео: MPEG-4 Visual, 720x304, ~1563 kbps, 25 fps
Аудио: AC3, 48 kHz, 384 kbps, 6 ch
-

MediaInfo

General
Complete name : E:\загрузки\DoKToR.2O16.O.WEB-DLRip.ALLTOR.ME.avi
Format : AVI
Format/Info : Audio Video Interleave
File size : 1.37 GiB
Duration : 1 h 39 min
Overall bit rate : 1 958 kb/s
Writing application : VirtualDubMod 1.5.10.2 (build 2540/release)
Writing library : VirtualDubMod build 2540/release
Video
ID : 0
Format : MPEG-4 Visual
Format profile : Advanced Simple@L5
Format settings, BVOP : 2
Format settings, QPel : No
Format settings, GMC : No warppoints
Format settings, Matrix : Default (MPEG)
Codec ID : XVID
Codec ID/Hint : XviD
Duration : 1 h 39 min
Bit rate : 1 564 kb/s
Width : 720 pixels
Height : 304 pixels
Display aspect ratio : 2.35:1
Frame rate : 25.000 FPS
Color space : YUV
Chroma subsampling : 4:2:0
Bit depth : 8 bits
Scan type : Progressive
Compression mode : Lossy
Bits/(Pixel*Frame) : 0.286
Stream size : 1.09 GiB (80%)
Writing library : XviD 1.2.1 (UTC 2008-12-04)
Audio
ID : 1
Format : AC-3
Format/Info : Audio Coding 3
Mode extension : CM (complete main)
Format settings, Endianness : Big
Codec ID : 2000
Duration : 1 h 39 min
Bit rate mode : Constant
Bit rate : 384 kb/s
Channel(s) : 6 channels
Channel positions : Front: L C R, Side: L R, LFE
Sampling rate : 48.0 kHz
Frame rate : 31.250 FPS (1536 spf)
Bit depth : 16 bits
Compression mode : Lossy
Stream size : 275 MiB (20%)
Alignment : Split accross interleaves
Interleave, duration : 40 ms (1.00 video frame)
Interleave, preload duration : 500 ms

[Профиль] ЛС
Показать сообщения:    
Ответить на тему

Текущее время: 20-Фев 04:36

Часовой пояс: UTC + 5



Вы не можете начинать темы
Вы не можете отвечать на сообщения
Вы не можете редактировать свои сообщения
Вы не можете удалять свои сообщения
Вы не можете голосовать в опросах
Вы не можете прикреплять файлы к сообщениям
Вы не можете скачивать файлы