Регистрация ·
Имя: Пароль:  
· Забыли пароль?


Развод / Divorce/ Сезон: 1 / Серии: 1-8 из 8 ( Джесси Перец, Адам Бернштейн, Джеми Бэббит [2016, комедия, WEB-DLRip] (MVO)

Ответить на тему
 
Автор Сообщение

$-Шаман-$ ®

Пол: Мужской

Стаж: 2 месяца 3 дня

Сообщений: 427

Репутация: 749

[+] [-]

Откуда: Ташкент Сергели р-он

Наличие запрета:



Награды: 6 (Подробнее)

250 активных раздач (Количество: 1) Активный модератор (Количество: 1) Киноман (Количество: 1) Раздал 1 TB (Количество: 1) Раздал 200 GB (Количество: 1)
Форумчанин 2 (Количество: 1)

Создавать темы 22-Дек-2016 00:02

Цитировать

Развод / Divorce Год выпуска: 2016
Страна: США
Жанр: комедия
Продолжительность: 1x ~ 00:33:17
Перевод: Профессиональный (многоголосый закадровый) Newstudio-Режиссер: Джесси Перец / Jesse Peretz, Адам Бернштейн / Adam Bernstein, Джеми Бэббит / Jamie Babbit
В ролях: Сара Джессика Паркер, Томас Хейден Чёрч, Молли Шеннон, Талия Болсам, Трэйси Леттс, Стерлинг Джеринс, Чарли Килгор, Jorge Chapa, Дэнни Гарсиа, Keisha Zollar, Джеффри ДеМанн, Jim Bracchitta-Описание: Фрэнсис переживает долгий, трудный развод, который заставляет ее по-новому взглянуть на годы совместно прожитой жизни. Оказывается, начать все с чистого листа не так-то просто.-КиноПоиск: 6.152 (348)
IMDb: 6.70 (2146)-Качество: WEB-DLRip
Формат: AVI
Видео: MPEG-4 Visual, 720x400, ~1200 kbps, 23,976 fps
Аудио #1: MP3, 48 kHz, 128 kbps, 2 ch
Аудио #2: MP3, 48 kHz, 128 kbps, 2 ch-

MediaInfo

General
Complete name : E:\загрузки\Divorce.s01e01.WEBDLRip.NewStudio.TV.avi
Format : AVI
Format/Info : Audio Video Interleave
File size : 350 MiB
Duration : 33 min 17 s
Overall bit rate : 1 471 kb/s
Writing application : VirtualDubMod 1.5.10.2 (build 2540/release)
Writing library : VirtualDubMod build 2540/release
Video
ID : 0
Format : MPEG-4 Visual
Format profile : Advanced Simple@L5
Format settings, BVOP : 2
Format settings, QPel : Yes
Format settings, GMC : No warppoints
Format settings, Matrix : Default (MPEG)
Muxing mode : Packed bitstream
Codec ID : XVID
Codec ID/Hint : XviD
Duration : 33 min 17 s
Bit rate : 1 201 kb/s
Width : 720 pixels
Height : 400 pixels
Display aspect ratio : 16:9
Frame rate : 23.976 (24000/1001) FPS
Color space : YUV
Chroma subsampling : 4:2:0
Bit depth : 8 bits
Scan type : Progressive
Compression mode : Lossy
Bits/(Pixel*Frame) : 0.174
Stream size : 286 MiB (82%)
Writing library : XviD 73
Audio #1
ID : 1
Format : MPEG Audio
Format version : Version 1
Format profile : Layer 3
Mode : Joint stereo
Mode extension : MS Stereo
Codec ID : 55
Codec ID/Hint : MP3
Duration : 33 min 17 s
Bit rate mode : Constant
Bit rate : 128 kb/s
Channel(s) : 2 channels
Sampling rate : 48.0 kHz
Compression mode : Lossy
Stream size : 30.5 MiB (9%)
Alignment : Aligned on interleaves
Interleave, duration : 42 ms (1.00 video frame)
Interleave, preload duration : 504 ms
Audio #2
ID : 2
Format : MPEG Audio
Format version : Version 1
Format profile : Layer 3
Mode : Joint stereo
Codec ID : 55
Codec ID/Hint : MP3
Duration : 33 min 17 s
Bit rate mode : Constant
Bit rate : 128 kb/s
Channel(s) : 2 channels
Sampling rate : 48.0 kHz
Compression mode : Lossy
Stream size : 30.5 MiB (9%)
Alignment : Aligned on interleaves
Interleave, duration : 42 ms (1.00 video frame)
Interleave, preload duration : 504 ms
Writing library : LAME3.99r
Encoding settings : -m j -V 4 -q 2 -lowpass 17 -b 128
[Профиль] ЛС
Показать сообщения:    
Ответить на тему

Текущее время: 25-Фев 20:52

Часовой пояс: UTC + 5



Вы не можете начинать темы
Вы не можете отвечать на сообщения
Вы не можете редактировать свои сообщения
Вы не можете удалять свои сообщения
Вы не можете голосовать в опросах
Вы не можете прикреплять файлы к сообщениям
Вы не можете скачивать файлы